<?xml version="1.0" standalone="no"?>
<!DOCTYPE svg PUBLIC "-//W3C//DTD SVG 1.1//EN" "http://www.w3.org/Graphics/SVG/1.1/DTD/svg11.dtd">
<svg xmlns="http://www.w3.org/2000/svg">
<defs >
<font id="Outfit" horiz-adv-x="563" ><font-face
    font-family="Outfit Thin Light"
    units-per-em="1000"
    panose-1="0 0 0 0 0 0 0 0 0 0"
    ascent="1000"
    descent="-260"
    alphabetic="0" />
<glyph unicode=" " horiz-adv-x="215" />
<glyph unicode="!" horiz-adv-x="261" d="M101 209L90 708H167L156 209H101ZM128 -10Q103 -10 87 7T71 47Q71 72 87 88T128 105Q152 105 168 89T184 47Q184 24 168 7T128 -10Z" />
<glyph unicode="&quot;" horiz-adv-x="374" d="M236 486L219 708H298L281 486H236ZM94 486L76 708H156L138 486H94Z" />
<glyph unicode="#" horiz-adv-x="638" d="M340 0L442 688H503L401 0H340ZM54 219V276H554V219H54ZM128 0L230 688H291L189 0H128ZM83 426V483H584V426H83Z" />
<glyph unicode="$" horiz-adv-x="592" d="M296 -10Q221 -10 165 20T65 106L115 156Q150 106 195 81T299 56Q364 56 404 86T444 172Q444 213 426 239T378 282T311 312T239 339T172 376T124 432T105 519Q105 575 131 615T204 676T310 698Q372 698 423 672T509 602L459
552Q428 591 391 612T308 633Q248 633 212 605T176 524Q176 485 194 461T243 421T310 393T383 365T450 327T499 269T518 178Q518 89 458 40T296 -10ZM285 -100V788H338V-100H285Z" />
<glyph unicode="%" horiz-adv-x="662" d="M74 0L516 688H588L147 0H74ZM463 -10Q425 -10 393 8T342 59T323 130Q323 169 342 200T392 249T463 268Q502 268 533 250T584 200T603 130Q603 91 585 59T534 9T463 -10ZM462 47Q498 47 521 70T544 130Q544 166 520 188T462
211Q429 211 406 189T383 130Q383 93 406 70T462 47ZM199 420Q161 420 129 438T78 488T59 559Q59 598 78 629T128 679T199 698Q238 698 269 680T320 630T339 559Q339 520 321 489T270 439T199 420ZM198 477Q234 477 256 500T279 560Q279 596 256 618T198 641Q165
641 142 619T119 560Q119 523 142 500T198 477Z" />
<glyph unicode="&amp;" horiz-adv-x="648" d="M546 0L214 349Q174 392 155 431T135 516Q135 569 159 610T226 675T325 699Q364 699 397 687T456 653T500 604L449 558Q425 592 395 611T325 630Q273 630 240 599T206 516Q206 479 222 451T273 385L635 0H546ZM288
-10Q222 -10 172 16T94 89T65 195Q65 259 99 311T195 392L230 348Q187 327 162 288T136 197Q136 155 156 124T211 75T291 57Q344 57 385 81T447 142L493 90Q473 60 442 38T371 3T288 -10Z" />
<glyph unicode="&apos;" horiz-adv-x="232" d="M94 486L76 708H156L138 486H94Z" />
<glyph unicode="(" horiz-adv-x="306" d="M230 -113Q173 -67 134 -1T73 145T52 309Q52 394 73 473T133 619T230 732L271 694Q195 630 155 530T115 309Q115 189 155 89T271 -75L230 -113Z" />
<glyph unicode=")" horiz-adv-x="306" d="M77 -113L35 -75Q112 -11 152 89T192 309Q192 430 152 530T35 694L77 732Q134 686 173 619T233 473T254 309Q254 225 234 146T174 0T77 -113Z" />
<glyph unicode="*" horiz-adv-x="488" d="M234 358L223 517L87 433L56 492L206 551L83 653L130 700L234 579L294 726L354 696L268 561L430 551L420 485L262 523L301 368L234 358Z" />
<glyph unicode="+" horiz-adv-x="537" d="M64 302V365H473V302H64ZM236 548H301V120H236V548Z" />
<glyph unicode="," horiz-adv-x="274" d="M81 -103L138 8L163 14Q159 5 152 -1T135 -8Q116 -8 101 7T85 46Q85 70 102 87T143 105Q166 105 183 88T201 46Q201 36 198 23T183 -13L123 -126L81 -103Z" />
<glyph unicode="-" horiz-adv-x="460" d="M71 220V287H390V220H71Z" />
<glyph unicode="." horiz-adv-x="289" d="M145 -10Q120 -10 104 7T88 48Q88 72 104 88T145 105Q169 105 185 89T201 48Q201 24 185 7T145 -10Z" />
<glyph unicode="/" horiz-adv-x="380" d="M20 -40L294 725H360L86 -40H20Z" />
<glyph unicode="0" horiz-adv-x="657" d="M330 -10Q254 -10 191 33T91 157T53 345Q53 454 90 532T189 654T328 698Q405 698 467 655T567 533T604 344Q604 236 567 156T468 33T330 -10ZM328 59Q387 59 432 92T504 189T530 345Q530 436 504 499T433 596T328 629Q270
629 225 596T153 500T127 345Q127 253 153 190T224 93T328 59Z" />
<glyph unicode="1" horiz-adv-x="338" d="M181 0V688H253V0H181ZM36 623V688H243V623H36Z" />
<glyph unicode="2" horiz-adv-x="540" d="M38 45L293 311Q337 358 361 390T395 448T405 504Q405 563 368 596T270 630Q214 630 172 604T97 524L46 569Q86 632 142 665T272 698Q334 698 380 674T452 606T478 503Q478 462 467 429T429 359T351 270L135 48L38 45ZM38
0V45L98 66H495V0H38Z" />
<glyph unicode="3" horiz-adv-x="535" d="M248 -10Q182 -10 128 16T36 91L85 140Q110 102 153 81T247 59Q297 59 333 78T390 131T411 212Q411 259 391 293T333 346T243 365Q226 365 209 363T174 356L202 397Q219 406 239 411T283 416Q340 416 386 390T458 317T485
209Q485 144 455 95T372 18T248 -10ZM174 356V401L392 646L477 643L255 395L174 356ZM66 623V688H477V643L414 623H66Z" />
<glyph unicode="4" horiz-adv-x="597" d="M38 228L295 688H377L116 228H38ZM38 182V228L69 248H559V182H38ZM385 0V459H457V0H385Z" />
<glyph unicode="5" horiz-adv-x="538" d="M248 -10Q180 -10 126 16T35 91L84 140Q109 102 151 81T247 59Q297 59 335 78T394 133T416 217Q416 266 395 301T338 356T257 375Q214 375 179 364T114 327L112 375Q130 395 153 408T204 428T268 435Q337 435 387 406T463
326T490 213Q490 148 459 98T374 19T248 -10ZM114 327L75 367L105 688H172L139 360L114 327ZM123 623L105 688H459V623H123Z" />
<glyph unicode="6" horiz-adv-x="565" d="M282 -10Q216 -10 163 21T78 106T46 224Q46 312 107 396L323 688H409L195 405L169 395Q183 413 201 425T244 445T299 452Q360 452 410 423T490 342T520 226Q520 161 488 108T402 22T282 -10ZM283 58Q328 58 365 80T425
141T447 226Q447 273 425 311T366 371T283 394Q237 394 200 372T141 312T119 226Q119 179 140 141T199 80T283 58Z" />
<glyph unicode="7" horiz-adv-x="528" d="M155 0L419 647L490 642L231 0H155ZM36 623V688H490V642L458 623H36Z" />
<glyph unicode="8" horiz-adv-x="552" d="M276 -10Q209 -10 158 16T77 87T48 191Q48 237 66 275T119 341T198 379L206 358Q166 369 138 393T95 450T80 521Q80 574 105 613T175 676T276 699Q333 699 377 676T447 614T472 521Q472 484 458 451T415 393T346 358L354
379Q400 369 433 342T485 276T504 191Q504 133 476 88T396 16T276 -10ZM276 56Q322 56 357 74T413 124T433 198Q433 240 413 271T358 321T276 340Q231 340 196 322T140 272T119 198Q119 157 139 125T195 74T276 56ZM276 397Q332 397 367 430T403 517Q403 570 368
603T276 636Q221 636 185 603T149 517Q149 464 185 431T276 397Z" />
<glyph unicode="9" horiz-adv-x="565" d="M156 0L371 284L396 294Q382 276 364 263T322 243T267 236Q206 236 156 266T76 347T45 462Q45 528 77 581T163 666T283 698Q350 698 403 667T488 583T520 465Q520 377 459 293L242 0H156ZM283 295Q329 295 366 317T424
377T446 462Q446 510 425 548T366 608T283 631Q237 631 200 609T141 548T119 462Q119 416 141 378T200 318T283 295Z" />
<glyph unicode=":" horiz-adv-x="270" d="M135 -10Q110 -10 95 7T79 47Q79 72 94 88T135 105Q159 105 175 89T192 47Q192 24 176 7T135 -10ZM135 305Q110 305 95 322T79 362Q79 387 94 403T135 419Q159 419 175 403T192 362Q192 339 176 322T135 305Z" />
<glyph unicode=";" horiz-adv-x="269" d="M76 -103L133 8L159 14Q155 5 148 -1T130 -8Q111 -8 96 7T80 46Q80 70 97 87T139 105Q162 105 179 88T196 46Q196 36 193 23T178 -13L119 -126L76 -103ZM135 305Q111 305 95 322T79 362Q79 387 95 403T135 419Q160 419
176 403T192 362Q192 339 176 322T135 305Z" />
<glyph unicode="&lt;" horiz-adv-x="537" d="M473 125L64 310V360L473 545V475L120 321V349L473 195V125Z" />
<glyph unicode="=" horiz-adv-x="537" d="M64 417V480H473V417H64ZM64 187V250H473V187H64Z" />
<glyph unicode="&gt;" horiz-adv-x="537" d="M64 475V545L473 360V310L64 125V195L417 349V321L64 475Z" />
<glyph unicode="?" horiz-adv-x="505" d="M224 209L223 396H248Q286 397 314 414T359 461T375 526Q375 561 360 589T315 633T246 649Q194 649 158 624T99 558L47 602Q75 655 127 686T249 718Q309 718 353 694T423 628T448 530Q448 478 425 436T360 367T262 333L291
365L284 209H224ZM253 -10Q229 -10 213 7T197 47Q197 72 213 88T253 105Q278 105 294 89T310 47Q310 24 294 7T253 -10Z" />
<glyph unicode="@" horiz-adv-x="764" d="M385 -87Q318 -87 260 -63T157 6T89 109T64 236Q64 306 89 365T159 468T263 536T391 561Q482 561 551 520T660 407T700 239Q700 197 692 164T665 100L604 106Q618 125 626 144T637 187T641 244Q641 325 611 383T524 473T392
505Q315 505 255 472T161 378T126 235Q126 156 159 96T251 3T383 -30Q439 -30 482 -15T559 30L600 -10Q556 -48 502 -67T385 -87ZM367 92Q329 92 297 111T247 163T228 236Q228 278 246 311T297 363T367 383Q417 383 448 358T480 290V184Q480 143 449 118T367 92ZM370
142Q411 142 435 168T459 237Q459 281 435 306T371 332Q333 332 308 306T282 237Q282 195 307 169T370 142ZM482 100V149H665V100H482ZM461 100V172L471 241L461 308V377H515V100H461Z" />
<glyph unicode="A" horiz-adv-x="690" d="M37 0L319 688H374L653 0H574L331 608H360L115 0H37ZM166 179V244H526V179H166Z" />
<glyph unicode="B" horiz-adv-x="625" d="M135 0V65H353Q421 65 460 103T499 198Q499 235 482 265T434 312T359 330H135V394H348Q404 394 436 424T469 509Q469 564 434 594T340 624H135V688H342Q406 688 451 665T519 603T542 515Q542 457 512 416T424 352L431
376Q498 355 535 307T573 193Q573 138 547 95T470 26T348 0H135ZM88 0V688H161V0H88Z" />
<glyph unicode="C" horiz-adv-x="693" d="M400 -10Q326 -10 263 17T152 93T80 206T54 345Q54 419 79 483T151 596T261 671T397 698Q476 698 538 670T648 593L598 543Q562 583 511 605T397 628Q339 628 291 607T206 548T150 458T130 345Q130 284 150 232T206 142T291
82T398 61Q464 61 515 84T603 147L653 96Q607 47 543 19T400 -10Z" />
<glyph unicode="D" horiz-adv-x="739" d="M133 0V68H335Q416 68 478 103T575 201T610 345Q610 426 575 488T478 585T335 621H135V688H337Q412 688 475 663T586 591T660 482T686 344Q686 271 660 208T587 99T477 26T339 0H133ZM88 0V688H161V0H88Z" />
<glyph unicode="E" horiz-adv-x="589" d="M88 0V688H161V0H88ZM136 0V67H541V0H136ZM136 320V385H509V320H136ZM136 621V688H535V621H136Z" />
<glyph unicode="F" horiz-adv-x="567" d="M88 0V688H161V0H88ZM136 311V378H505V311H136ZM136 621V688H522V621H136Z" />
<glyph unicode="G" horiz-adv-x="773" d="M399 -9Q326 -9 263 18T153 93T80 205T54 345Q54 420 80 484T154 596T265 672T404 699Q487 699 556 666T671 573L620 522Q584 573 528 600T404 628Q323 628 261 592T165 491T130 344Q130 262 164 198T259 98T397 61Q474
61 530 92T617 182T649 324L691 293H390V360H725V349Q725 233 684 153T569 32T399 -9Z" />
<glyph unicode="H" horiz-adv-x="700" d="M88 0V688H161V0H88ZM539 0V688H612V0H539ZM136 322V389H559V322H136Z" />
<glyph unicode="I" horiz-adv-x="249" d="M88 0V688H161V0H88Z" />
<glyph unicode="J" horiz-adv-x="495" d="M212 -10Q154 -10 111 12T36 74L88 122Q110 92 140 77T210 61Q246 61 276 76T324 125T342 208V688H416V209Q416 140 389 91T315 16T212 -10Z" />
<glyph unicode="K" horiz-adv-x="659" d="M524 0L148 359L516 688H614L222 339V381L624 0H524ZM88 0V688H161V0H88Z" />
<glyph unicode="L" horiz-adv-x="554" d="M88 0V688H161V0H88ZM136 0V67H515V0H136Z" />
<glyph unicode="M" horiz-adv-x="836" d="M88 0V688H140L437 201H400L697 688H749V0H675V560L692 556L444 149H392L144 556L161 560V0H88Z" />
<glyph unicode="N" horiz-adv-x="703" d="M88 0V688H140L161 601V0H88ZM564 0L129 590L140 688L574 98L564 0ZM564 0L542 83V688H616V0H564Z" />
<glyph unicode="O" horiz-adv-x="794" d="M398 -10Q325 -10 263 17T153 93T80 206T53 345Q53 420 79 484T152 596T261 671T396 698Q469 698 531 671T641 596T714 484T740 344Q740 270 714 206T642 93T533 18T398 -10ZM396 61Q474 61 534 98T629 199T664 345Q664
406 644 457T588 547T504 607T396 628Q319 628 259 592T164 491T129 345Q129 284 149 232T205 142T290 82T396 61Z" />
<glyph unicode="P" horiz-adv-x="608" d="M135 276V341H338Q380 341 413 358T466 406T486 482Q486 526 467 557T414 606T338 624H135V688H343Q405 688 454 663T531 591T560 482Q560 420 532 374T454 302T343 276H135ZM88 0V688H161V0H88Z" />
<glyph unicode="Q" horiz-adv-x="814" d="M399 -10Q326 -10 263 17T153 93T80 206T54 345Q54 420 80 484T152 596T261 671T397 698Q470 698 532 671T641 596T714 484T741 344Q741 270 715 206T642 93T533 18T399 -10ZM743 -49L408 285L455 332L790 -2L743 -49ZM397
61Q475 61 535 98T630 199T665 345Q665 406 645 457T589 547T504 607T397 628Q319 628 259 592T165 491T130 345Q130 284 150 232T205 142T290 82T397 61Z" />
<glyph unicode="R" horiz-adv-x="633" d="M135 308V370H335Q403 370 439 404T475 497Q475 553 439 588T335 624H135V688H335Q402 688 450 664T523 596T549 498Q549 441 524 398T450 332T335 308H135ZM88 0V688H161V0H88ZM504 0L246 318L317 341L598 0H504Z" />
<glyph unicode="S" horiz-adv-x="554" d="M278 -10Q198 -10 140 20T38 106L89 156Q124 107 170 83T281 59Q347 59 388 89T429 172Q429 213 410 239T361 282T293 312T220 339T152 376T103 432T84 519Q84 575 111 615T185 676T292 698Q359 698 411 672T499 602L449
552Q417 590 379 610T290 630Q230 630 194 602T158 524Q158 485 176 461T226 421T293 393T367 365T434 327T484 269T503 178Q503 89 443 40T278 -10Z" />
<glyph unicode="T" horiz-adv-x="632" d="M279 0V669H353V0H279ZM37 621V688H595V621H37Z" />
<glyph unicode="U" horiz-adv-x="676" d="M339 -10Q264 -10 206 23T113 115T79 247V688H153V251Q153 193 177 150T243 84T339 61Q392 61 433 84T499 149T524 250V688H597V246Q597 173 564 115T472 24T339 -10Z" />
<glyph unicode="V" horiz-adv-x="679" d="M311 0L37 688H117L354 81H325L564 688H642L366 0H311Z" />
<glyph unicode="W" horiz-adv-x="979" d="M261 0L39 688H112L299 96H277L462 688H517L703 96H680L867 688H941L718 0H664L479 591H500L315 0H261Z" />
<glyph unicode="X" horiz-adv-x="685" d="M561 0L333 324H320L48 688H136L360 385H373L648 0H561ZM37 0L308 363L356 319L120 0H37ZM379 335L331 380L554 688H637L379 335Z" />
<glyph unicode="Y" horiz-adv-x="659" d="M308 284L35 688H121L348 349H312L541 688H624L349 284H308ZM293 0V337H367V0H293Z" />
<glyph unicode="Z" horiz-adv-x="577" d="M43 49L445 639H532L130 49H43ZM43 0V49L106 67H524V0H43ZM62 621V688H532V639L468 621H62Z" />
<glyph unicode="[" horiz-adv-x="335" d="M84 -96V708H145V-96H84ZM114 -96V-40H295V-96H114ZM114 652V708H295V652H114Z" />
<glyph unicode="\" horiz-adv-x="380" d="M294 -40L20 725H86L360 -40H294Z" />
<glyph unicode="]" horiz-adv-x="335" d="M190 -96V708H251V-96H190ZM40 -96V-40H221V-96H40ZM40 652V708H221V652H40Z" />
<glyph unicode="^" horiz-adv-x="455" d="M333 457L215 668H241L122 457H60L203 708H251L395 457H333Z" />
<glyph unicode="_" horiz-adv-x="529" d="M40 -113V-53H489V-113H40Z" />
<glyph unicode="`" horiz-adv-x="269" d="M197 538L40 672L96 728L229 570L197 538Z" />
<glyph unicode="a" horiz-adv-x="585" d="M275 -10Q208 -10 155 22T72 110T41 234Q41 304 71 359T155 447T274 480Q328 480 370 459T439 399T472 309V162Q466 111 440 72T371 12T275 -10ZM286 57Q359 57 403 106T448 235Q448 288 428 328T371 391T285 414Q235
414 197 391T136 328T113 235Q113 183 135 143T197 80T286 57ZM444 0V126L458 242L444 355V470H514V0H444Z" />
<glyph unicode="b" horiz-adv-x="585" d="M314 -10Q260 -10 217 12T147 72T113 162V309Q119 361 147 399T218 459T314 480Q379 480 431 448T513 360T544 234Q544 165 514 110T432 23T314 -10ZM71 0V708H141V355L127 242L141 126V0H71ZM302 57Q352 57 390 79T449
142T471 235Q471 288 450 328T390 391T303 414Q254 414 217 391T158 328T137 235Q137 183 158 143T216 80T302 57Z" />
<glyph unicode="c" horiz-adv-x="491" d="M285 -10Q216 -10 161 22T73 111T40 236Q40 305 72 360T160 448T285 480Q338 480 384 460T462 404L416 357Q392 384 358 398T285 413Q235 413 196 390T135 328T113 236Q113 185 135 145T196 81T285 58Q325 58 359 72T417
114L464 67Q431 30 385 10T285 -10Z" />
<glyph unicode="d" horiz-adv-x="585" d="M271 -10Q206 -10 154 22T72 109T41 234Q41 304 71 359T154 447T271 480Q324 480 367 459T438 400T472 309V162Q466 111 439 73T368 12T271 -10ZM283 57Q332 57 369 79T427 142T448 235Q448 288 427 328T368 391T282 414Q233
414 195 391T136 328T114 235Q114 183 135 143T195 80T283 57ZM514 0H444V126L458 242L444 355V708H514V0Z" />
<glyph unicode="e" horiz-adv-x="538" d="M288 -10Q217 -10 161 22T73 110T40 236Q40 305 72 360T159 448T282 480Q346 480 395 451T473 371T502 252Q502 244 501 234T497 209H90V269H459L434 247Q435 299 417 336T364 394T280 415Q229 415 191 393T132 332T110
238Q110 184 132 143T195 79T289 56Q332 56 368 71T429 118L474 72Q441 33 393 12T288 -10Z" />
<glyph unicode="f" horiz-adv-x="395" d="M140 0V550Q140 599 161 637T221 696T309 718Q347 718 376 705T429 667L383 621Q367 637 350 644T309 652Q262 652 237 625T211 548V0H140ZM22 407V470H368V407H22Z" />
<glyph unicode="g" horiz-adv-x="582" d="M265 -208Q194 -208 139 -182T49 -107L95 -61Q123 -99 166 -120T267 -141Q347 -141 394 -98T442 19V136L456 243L442 349V470H512V19Q512 -49 481 -100T395 -179T265 -208ZM270 5Q205 5 153 36T71 121T41 243Q41 311 70
364T152 449T269 480Q324 480 367 459T437 400T470 309V176Q464 125 437 87T367 27T270 5ZM283 72Q332 72 368 93T425 152T446 243Q446 294 426 332T368 392T282 414Q233 414 195 392T135 332T113 243Q113 193 135 154T195 94T283 72Z" />
<glyph unicode="h" horiz-adv-x="544" d="M413 0V276Q413 338 377 376T280 415Q239 415 208 397T159 348T141 277L109 295Q109 348 134 390T201 456T299 480Q353 480 395 456T460 388T484 288V0H413ZM71 0V708H141V0H71Z" />
<glyph unicode="i" horiz-adv-x="213" d="M71 0V470H142V0H71ZM106 572Q86 572 72 586T58 621Q58 642 72 656T106 670Q128 670 141 656T155 621Q155 601 142 587T106 572Z" />
<glyph unicode="j" horiz-adv-x="218" d="M-2 -208Q-43 -208 -73 -194T-126 -154L-80 -108Q-65 -126 -47 -134T-5 -142Q29 -142 53 -122T77 -59V470H147V-58Q147 -107 127 -140T72 -191T-2 -208ZM112 572Q92 572 78 586T64 621Q64 642 78 656T112 670Q134 670
147 656T161 621Q161 601 148 587T112 572Z" />
<glyph unicode="k" horiz-adv-x="484" d="M374 0L134 241L370 470H457L200 223L203 263L467 0H374ZM71 0V708H141V0H71Z" />
<glyph unicode="l" horiz-adv-x="212" d="M71 0V708H141V0H71Z" />
<glyph unicode="m" horiz-adv-x="849" d="M71 0V470H141V0H71ZM394 0V288Q394 346 359 380T271 415Q235 415 206 400T159 356T141 289L109 302Q109 356 133 396T197 458T289 480Q339 480 378 458T441 396T465 301V0H394ZM718 0V288Q718 346 683 380T594 415Q559
415 530 400T483 356T465 289L423 302Q426 356 451 396T518 458T610 480Q660 480 700 458T764 396T788 301V0H718Z" />
<glyph unicode="n" horiz-adv-x="544" d="M413 0V276Q413 338 377 376T280 415Q239 415 208 397T159 348T141 277L109 295Q109 348 134 390T201 456T299 480Q353 480 395 454T460 384T484 288V0H413ZM71 0V470H141V0H71Z" />
<glyph unicode="o" horiz-adv-x="568" d="M284 -10Q216 -10 161 23T73 112T40 237Q40 305 72 360T160 447T284 480Q353 480 408 448T495 361T528 237Q528 167 496 112T408 23T284 -10ZM284 58Q334 58 372 81T433 145T456 237Q456 288 434 327T373 390T284 413Q235
413 196 390T135 328T113 237Q113 185 135 145T196 81T284 58Z" />
<glyph unicode="p" horiz-adv-x="585" d="M314 -10Q260 -10 217 12T147 72T113 162V309Q119 361 147 399T218 459T314 480Q379 480 431 448T513 360T544 234Q544 165 514 110T432 23T314 -10ZM71 -198V470H141V350L127 236L141 121V-198H71ZM302 57Q352 57 390
79T449 142T471 235Q471 288 450 328T390 391T303 414Q254 414 217 391T158 328T137 235Q137 183 158 143T216 80T302 57Z" />
<glyph unicode="q" horiz-adv-x="585" d="M275 -10Q209 -10 156 22T72 110T41 234Q41 304 72 359T155 447T274 480Q328 480 370 459T440 399T472 309V162Q466 111 440 72T371 12T275 -10ZM286 57Q360 57 404 106T448 235Q448 288 428 328T371 391T285 414Q235
414 197 391T136 328T114 235Q114 183 136 143T197 80T286 57ZM444 -198V121L458 236L444 350V470H515V-198H444Z" />
<glyph unicode="r" horiz-adv-x="414" d="M71 0V470H141V0H71ZM141 274L112 287Q112 376 155 428T275 480Q310 480 339 468T393 428L347 379Q330 398 310 406T263 414Q209 414 175 379T141 274Z" />
<glyph unicode="s" horiz-adv-x="424" d="M215 -10Q177 -10 142 0T79 30T29 75L74 121Q102 87 137 71T217 54Q264 54 290 72T317 122Q317 152 298 169T250 196T187 215T124 239T76 280T57 348Q57 388 76 417T132 463T219 480Q272 480 315 461T384 405L339 360Q318
387 287 401T216 416Q171 416 148 399T124 353Q124 326 143 311T191 286T254 267T317 242T365 200T384 128Q384 65 339 28T215 -10Z" />
<glyph unicode="t" horiz-adv-x="357" d="M144 0V668H214V0H144ZM25 407V470H332V407H25Z" />
<glyph unicode="u" horiz-adv-x="515" d="M257 -10Q200 -10 155 16T85 89T59 197V470H130V200Q130 157 145 125T190 75T257 57Q316 57 350 96T385 200V470H455V197Q455 136 430 89T360 16T257 -10Z" />
<glyph unicode="v" horiz-adv-x="512" d="M235 0L18 470H96L279 59H235L419 470H495L276 0H235Z" />
<glyph unicode="w" horiz-adv-x="746" d="M202 0L21 470H94L237 80L211 79L353 470H394L536 79L510 80L652 470H726L544 0H503L358 385H388L244 0H202Z" />
<glyph unicode="x" horiz-adv-x="499" d="M391 0L234 214L219 226L30 470H117L263 278L277 266L477 0H391ZM22 0L220 258L259 206L105 0H22ZM282 227L242 278L386 470H469L282 227Z" />
<glyph unicode="y" horiz-adv-x="510" d="M228 -2L22 470H99L265 76H236L411 470H489L268 -2H228ZM100 -198L229 69L268 -2L177 -198H100Z" />
<glyph unicode="z" horiz-adv-x="442" d="M30 39L327 432H410L113 39H30ZM30 0V39L91 64H404V0H30ZM47 407V470H410V432L344 407H47Z" />
<glyph unicode="{" horiz-adv-x="320" d="M235 -96Q163 -96 125 -52T97 82L110 200Q115 242 103 261T63 281H35V335H63Q90 335 102 354T110 416L97 531Q87 620 125 664T235 708H280V652H243Q195 652 173 626T158 535L169 425Q173 389 167 363T141 319T85 293V320Q121
313 140 296T166 253T169 190L158 78Q151 14 173 -13T243 -40H280V-96H235Z" />
<glyph unicode="|" horiz-adv-x="275" d="M105 -130V758H170V-130H105Z" />
<glyph unicode="}" horiz-adv-x="320" d="M85 -96H40V-40H77Q125 -40 147 -13T162 78L151 190Q148 226 154 252T179 296T235 320V293Q199 302 180 319T154 362T151 425L162 535Q170 599 148 625T77 652H40V708H85Q157 708 195 664T223 531L210 416Q205 374 217
355T257 335H285V281H257Q230 281 218 262T210 200L223 82Q233 -8 195 -52T85 -96Z" />
<glyph unicode="~" horiz-adv-x="537" d="M357 284Q331 284 310 290T270 306T231 322T186 329Q157 329 137 319T100 289L59 329Q81 360 111 377T184 395Q213 395 235 388T276 372T314 357T356 350Q382 350 402 360T438 389L478 350Q457 319 427 302T357 284Z" />
<glyph unicode="&#xa0;" horiz-adv-x="215" />
<glyph unicode="&#xa1;" horiz-adv-x="264" d="M94 -198L105 262H160L171 -198H94ZM131 366Q107 366 91 382T75 423Q75 447 91 463T131 480Q156 480 172 464T188 423Q188 399 172 383T131 366Z" />
<glyph unicode="&#xa2;" horiz-adv-x="514" d="M295 99Q226 99 171 131T83 220T51 345Q51 414 83 469T170 557T295 589Q348 589 394 569T473 513L426 466Q402 493 369 507T295 522Q246 522 207 499T146 437T123 345Q123 294 145 254T207 190T295 167Q335 167 369
181T428 223L474 176Q441 139 395 119T295 99ZM258 10V678H311V10H258Z" />
<glyph unicode="&#xa3;" horiz-adv-x="617" d="M169 5V487Q169 554 196 601T270 673T375 698Q444 698 487 671T555 608L506 559Q482 591 452 610T373 630Q337 630 307 614T260 568T243 493V5H169ZM70 0V67H541V0H70ZM70 301V361H450V301H70Z" />
<glyph unicode="&#xa4;" horiz-adv-x="529" d="M264 147Q209 147 164 173T92 245T65 345Q65 401 91 445T163 515T264 542Q320 542 365 516T437 446T464 345Q464 289 438 244T366 173T264 147ZM80 123L42 160L125 243L163 206L80 123ZM264 211Q302 211 330 228T376
276T393 346Q393 384 376 413T331 460T264 477Q227 477 198 460T153 413T136 345Q136 307 152 277T198 229T264 211ZM449 123L366 206L403 243L486 160L449 123ZM125 446L42 529L80 567L163 484L125 446ZM403 446L366 484L449 567L486 529L403 446Z" />
<glyph unicode="&#xa5;" horiz-adv-x="647" d="M302 279L67 688H152L342 337H306L497 688H581L343 279H302ZM287 0V327H361V0H287ZM234 462L258 403H89V462H234ZM89 228V287H558V228H89ZM391 403L420 462H558V403H391Z" />
<glyph unicode="&#xa6;" horiz-adv-x="275" d="M105 391V758H170V391H105ZM105 -130V238H170V-130H105Z" />
<glyph unicode="&#xa7;" horiz-adv-x="520" d="M267 140L268 193Q321 193 351 215T382 276Q382 313 362 333T308 366T238 389T169 417T115 464T94 545Q94 591 115 625T176 679T270 698Q329 698 376 675T450 610L404 563Q381 597 345 614T267 632Q216 632 190 609T163
550Q163 515 183 495T237 463T307 439T376 411T430 363T451 282Q451 239 427 207T362 158T267 140ZM250 -121Q191 -121 144 -98T70 -33L116 14Q139 -19 175 -36T253 -54Q304 -54 330 -31T357 28Q357 63 337 82T283 114T213 138T144 167T90 215T69 295Q69 340 93
371T158 420T253 438L252 385Q199 385 169 362T138 302Q138 265 158 245T212 212T282 189T351 160T405 113T426 32Q426 -13 405 -47T344 -101T250 -121Z" />
<glyph unicode="&#xa8;" horiz-adv-x="407" d="M108 552Q88 552 74 566T60 601Q60 622 74 636T108 650Q130 650 143 636T157 601Q157 581 144 567T108 552ZM298 552Q278 552 264 566T250 601Q250 622 264 636T298 650Q320 650 333 636T347 601Q347 581 334 567T298 552Z" />
<glyph unicode="&#xa9;" horiz-adv-x="842" d="M422 -10Q345 -10 281 17T169 93T97 206T71 345Q71 420 96 484T168 596T279 671T420 698Q497 698 562 671T673 596T745 484T771 344Q771 270 746 206T673 93T563 17T422 -10ZM427 148Q372 148 327 174T256 245T230
345Q230 401 256 445T327 515T428 541Q470 541 507 526T571 480L529 436Q511 457 485 468T428 479Q392 479 362 462T315 415T298 345Q298 305 315 275T362 227T428 209Q460 209 486 220T531 253L572 209Q546 180 508 164T427 148ZM420 28Q512 28 582 70T691 184T731
345Q731 434 692 505T582 618T420 660Q328 660 258 619T150 506T111 345Q111 256 150 184T259 70T420 28Z" />
<glyph unicode="&#xaa;" horiz-adv-x="354" d="M163 398Q123 398 91 417T41 470T22 545Q22 588 40 621T90 674T162 694Q208 694 240 668T278 599V493Q272 452 241 425T163 398ZM173 450Q212 450 236 476T261 546Q261 589 237 615T172 642Q132 642 106 615T80 546Q80
504 106 477T173 450ZM258 404V480L268 550L258 618V688H314V404H258Z" />
<glyph unicode="&#xab;" horiz-adv-x="441" d="M157 82L43 238L157 394H230L112 238L230 82H157ZM326 82L212 238L326 394H399L282 238L399 82H326Z" />
<glyph unicode="&#xac;" horiz-adv-x="537" d="M64 352V415H473V352H64ZM408 402H473V180H408V402Z" />
<glyph unicode="&#xae;" horiz-adv-x="578" d="M290 268Q227 268 179 297T104 375T76 484Q76 545 103 593T177 669T288 698Q351 698 399 670T475 593T502 484Q502 423 475 374T400 297T290 268ZM218 373V600H249V373H218ZM352 373L266 479H303L390 373H352ZM288
294Q344 294 385 319T451 387T475 484Q475 537 451 579T386 647T288 672Q234 672 193 647T128 580T104 484Q104 430 127 388T192 320T288 294ZM233 475V503H299Q319 503 329 512T339 537Q339 551 329 561T299 572H233V600H300Q332 600 351 583T370 538Q370 509
351 492T300 475H233Z" />
<glyph unicode="&#xaf;" horiz-adv-x="423" d="M40 630H383V571H40V630Z" />
<glyph unicode="&#xb0;" horiz-adv-x="396" d="M198 394Q154 394 120 413T66 467T46 545Q46 589 65 623T119 678T198 698Q242 698 276 678T331 624T351 545Q351 502 331 468T277 414T198 394ZM199 450Q238 450 264 477T290 546Q290 588 265 615T199 642Q158 642
133 615T107 546Q107 505 133 478T199 450Z" />
<glyph unicode="&#xb1;" horiz-adv-x="537" d="M64 362V425H473V362H64ZM236 553H301V235H236V553ZM64 115V178H473V115H64Z" />
<glyph unicode="&#xb2;" horiz-adv-x="333" d="M40 375L174 512Q200 538 208 553T217 586Q217 610 202 624T159 639Q136 639 118 627T83 590L41 628Q62 661 93 677T164 694Q217 694 248 666T279 587Q279 557 266 533T219 474L118 374L40 375ZM40 340V375L92 393H287V340H40Z"
/>
<glyph unicode="&#xb3;" horiz-adv-x="332" d="M151 334Q115 334 86 347T36 384L76 424Q87 408 107 398T150 388Q181 388 200 405T220 451Q220 480 200 496T146 513Q138 513 128 512T110 509L136 543Q153 549 163 551T183 553Q225 553 253 525T282 449Q282 398
246 366T151 334ZM110 509V544L207 654L276 653L176 542L110 509ZM56 635V688H276V653L227 635H56Z" />
<glyph unicode="&#xb4;" horiz-adv-x="269" d="M72 543L40 575L173 733L229 677L72 543Z" />
<glyph unicode="&#xb5;" horiz-adv-x="583" d="M105 -185V470H176V-185H105ZM312 -10Q231 -10 185 42T139 176L176 194Q176 129 211 93T301 57Q356 57 393 92T431 194V470H501V187Q501 129 477 85T410 15T312 -10Z" />
<glyph unicode="&#xb6;" horiz-adv-x="694" d="M374 276H280Q219 276 170 301T93 373T64 482Q64 545 92 591T170 662T280 688H638V624H286Q243 624 210 607T157 558T138 482Q138 438 157 407T209 358T286 341H374V276ZM401 -100H337V688H401V-100ZM549 -100H485V688H549V-100Z"
/>
<glyph unicode="&#xb7;" horiz-adv-x="113" d="M57 304Q32 304 16 321T0 362Q0 386 16 402T57 419Q81 419 97 403T113 362Q113 338 97 321T57 304Z" />
<glyph unicode="&#xb8;" horiz-adv-x="268" d="M131 -208Q98 -208 69 -198T16 -170L51 -131Q65 -143 84 -150T127 -158Q159 -158 175 -148T192 -120Q192 -102 175 -91T125 -80H89L117 11H175L152 -59L125 -36Q186 -35 220 -58T255 -121Q255 -160 222 -184T131 -208Z" />
<glyph unicode="&#xb9;" horiz-adv-x="254" d="M106 340V688H169V340H106ZM36 635V688H164V635H36Z" />
<glyph unicode="&#xba;" horiz-adv-x="344" d="M172 397Q130 397 96 416T41 470T21 546Q21 588 41 621T95 674T172 694Q215 694 248 675T302 622T323 546Q323 504 303 470T249 417T172 397ZM172 450Q213 450 239 477T265 547Q265 588 239 614T172 641Q132 641
106 614T79 546Q79 504 105 477T172 450Z" />
<glyph unicode="&#xbb;" horiz-adv-x="441" d="M211 82L329 238L211 394H284L398 238L284 82H211ZM42 82L159 238L42 394H115L229 238L115 82H42Z" />
<glyph unicode="&#xbc;" horiz-adv-x="663" d="M271 300L302 272L104 -13L42 45L271 300ZM360 391L329 418L527 703L589 646L360 391ZM145 340V688H207V340H145ZM74 635V688H202V635H74ZM341 104L460 338H528L407 104H341ZM341 69V104L360 122H616V69H341ZM513
-10V209H575V-10H513Z" />
<glyph unicode="&#xbd;" horiz-adv-x="656" d="M271 300L302 272L104 -13L42 45L271 300ZM360 391L329 418L527 703L589 646L360 391ZM145 340V688H207V340H145ZM74 635V688H202V635H74ZM353 25L487 162Q512 188 520 203T529 236Q529 260 514 274T472 289Q449
289 431 277T395 240L353 278Q375 311 406 327T476 344Q529 344 560 316T592 237Q592 207 579 183T532 124L431 24L353 25ZM353 -10V25L405 43H600V-10H353Z" />
<glyph unicode="&#xbe;" horiz-adv-x="656" d="M279 302L310 277L122 -13L60 45L279 302ZM393 388L362 413L550 703L612 646L393 388ZM169 334Q133 334 104 347T54 384L94 424Q105 408 125 398T168 388Q199 388 218 405T238 451Q238 480 218 496T164 513Q156 513
146 512T128 509L154 543Q171 549 181 551T201 553Q243 553 271 525T300 449Q300 398 264 366T169 334ZM128 509V544L225 654L294 653L194 542L128 509ZM74 635V688H294V653L245 635H74ZM321 104L439 338H508L387 104H321ZM321 69V104L340 122H596V69H321ZM493
-10V209H555V-10H493Z" />
<glyph unicode="&#xbf;" horiz-adv-x="494" d="M255 -208Q197 -208 153 -183T83 -115T58 -18Q58 37 81 78T147 145T245 177L216 145L222 262H282L284 115L258 114Q202 113 167 79T131 -14Q131 -49 147 -77T191 -122T258 -139Q311 -139 347 -114T405 -47L457 -92Q429
-144 377 -176T255 -208ZM253 366Q229 366 213 382T197 423Q197 448 213 464T253 480Q278 480 294 464T310 423Q310 399 294 383T253 366Z" />
<glyph unicode="&#xc0;" horiz-adv-x="690" d="M37 0L319 688H374L653 0H574L331 608H360L115 0H37ZM166 179V244H526V179H166ZM385 756L228 890L284 946L417 788L385 756Z" />
<glyph unicode="&#xc1;" horiz-adv-x="690" d="M37 0L319 688H374L653 0H574L331 608H360L115 0H37ZM166 179V244H526V179H166ZM283 761L251 793L384 951L440 895L283 761Z" />
<glyph unicode="&#xc2;" horiz-adv-x="690" d="M37 0L319 688H374L653 0H574L331 608H360L115 0H37ZM166 179V244H526V179H166ZM212 760L180 792L317 946H373L510 792L478 760L322 896L369 895L212 760Z" />
<glyph unicode="&#xc3;" horiz-adv-x="690" d="M37 0L319 688H374L653 0H574L331 608H360L115 0H37ZM166 179V244H526V179H166ZM419 766Q387 766 365 777T323 800T277 811Q250 811 235 801T207 773L168 811Q190 838 214 855T276 872Q309 872 331 861T374 839T418
827Q442 827 457 836T484 864L523 827Q502 799 478 783T419 766Z" />
<glyph unicode="&#xc4;" horiz-adv-x="690" d="M37 0L319 688H374L653 0H574L331 608H360L115 0H37ZM166 179V244H526V179H166ZM250 770Q230 770 216 784T202 819Q202 840 216 854T250 868Q272 868 285 854T299 819Q299 799 286 785T250 770ZM440 770Q420 770
406 784T392 819Q392 840 406 854T440 868Q462 868 475 854T489 819Q489 799 476 785T440 770Z" />
<glyph unicode="&#xc5;" horiz-adv-x="690" d="M37 0L319 688H374L653 0H574L331 608H360L115 0H37ZM166 179V244H526V179H166ZM346 660Q313 660 287 675T246 715T231 773Q231 805 246 830T287 871T346 886Q378 886 403 871T443 831T458 773Q458 741 444 716T404
675T346 660ZM347 713Q370 713 387 730T404 773Q404 799 387 816T347 834Q319 834 303 817T286 773Q286 748 302 731T347 713Z" />
<glyph unicode="&#xc6;" horiz-adv-x="965" d="M37 0L319 688H549V621H365L115 0H37ZM173 254V318H525V254H173ZM545 0V67H916V0H545ZM496 0V688H570V0H496ZM542 320V385H884V320H542ZM545 621V688H911V621H545Z" />
<glyph unicode="&#xc7;" horiz-adv-x="693" d="M400 -10Q326 -10 263 17T152 93T80 206T54 345Q54 419 79 483T151 596T261 671T397 698Q476 698 538 670T648 593L598 543Q562 583 511 605T397 628Q339 628 291 607T206 548T150 458T130 345Q130 284 150 232T206
142T291 82T398 61Q464 61 515 84T603 147L653 96Q607 47 543 19T400 -10ZM368 -208Q335 -208 306 -198T253 -170L288 -131Q302 -143 321 -150T364 -158Q396 -158 412 -148T429 -120Q429 -102 412 -91T362 -80H326L354 11H412L389 -59L362 -36Q423 -35 457 -58T492
-121Q492 -160 459 -184T368 -208Z" />
<glyph unicode="&#xc8;" horiz-adv-x="589" d="M88 0V688H161V0H88ZM136 0V67H541V0H136ZM136 320V385H509V320H136ZM136 621V688H535V621H136ZM356 756L199 890L255 946L388 788L356 756Z" />
<glyph unicode="&#xc9;" horiz-adv-x="589" d="M88 0V688H161V0H88ZM136 0V67H541V0H136ZM136 320V385H509V320H136ZM136 621V688H535V621H136ZM254 761L222 793L355 951L411 895L254 761Z" />
<glyph unicode="&#xca;" horiz-adv-x="589" d="M88 0V688H161V0H88ZM136 0V67H541V0H136ZM136 320V385H509V320H136ZM136 621V688H535V621H136ZM183 760L151 792L288 946H344L481 792L449 760L293 896L340 895L183 760Z" />
<glyph unicode="&#xcb;" horiz-adv-x="589" d="M88 0V688H161V0H88ZM136 0V67H541V0H136ZM136 320V385H509V320H136ZM136 621V688H535V621H136ZM221 770Q201 770 187 784T173 819Q173 840 187 854T221 868Q243 868 256 854T270 819Q270 799 257 785T221 770ZM411
770Q391 770 377 784T363 819Q363 840 377 854T411 868Q433 868 446 854T460 819Q460 799 447 785T411 770Z" />
<glyph unicode="&#xcc;" horiz-adv-x="249" d="M88 0V688H161V0H88ZM164 756L7 890L63 946L196 788L164 756Z" />
<glyph unicode="&#xcd;" horiz-adv-x="249" d="M88 0V688H161V0H88ZM62 761L30 793L163 951L219 895L62 761Z" />
<glyph unicode="&#xce;" horiz-adv-x="249" d="M88 0V688H161V0H88ZM-8 760L-40 792L97 946H153L290 792L258 760L102 896L149 895L-8 760Z" />
<glyph unicode="&#xcf;" horiz-adv-x="249" d="M88 0V688H161V0H88ZM29 770Q9 770 -5 784T-19 819Q-19 840 -5 854T29 868Q51 868 64 854T78 819Q78 799 65 785T29 770ZM219 770Q199 770 185 784T171 819Q171 840 185 854T219 868Q241 868 254 854T268 819Q268
799 255 785T219 770Z" />
<glyph unicode="&#xd0;" horiz-adv-x="749" d="M19 381H381V320H19V381ZM143 0V68H345Q426 68 488 103T585 201T620 345Q620 426 585 488T488 585T345 621H145V688H347Q422 688 485 663T596 591T670 482T696 344Q696 271 670 208T597 99T487 26T349 0H143ZM98
0V688H171V0H98Z" />
<glyph unicode="&#xd1;" horiz-adv-x="703" d="M88 0V688H140L161 601V0H88ZM564 0L129 590L140 688L574 98L564 0ZM564 0L542 83V688H616V0H564ZM426 766Q394 766 372 777T330 800T284 811Q257 811 242 801T214 773L175 811Q197 838 221 855T283 872Q316 872
338 861T381 839T425 827Q449 827 464 836T491 864L530 827Q509 799 485 783T426 766Z" />
<glyph unicode="&#xd2;" horiz-adv-x="794" d="M398 -10Q325 -10 263 17T153 93T80 206T53 345Q53 420 79 484T152 596T261 671T396 698Q469 698 531 671T641 596T714 484T740 344Q740 270 714 206T642 93T533 18T398 -10ZM396 61Q474 61 534 98T629 199T664 345Q664
406 644 457T588 547T504 607T396 628Q319 628 259 592T164 491T129 345Q129 284 149 232T205 142T290 82T396 61ZM437 756L280 890L336 946L469 788L437 756Z" />
<glyph unicode="&#xd3;" horiz-adv-x="794" d="M398 -10Q325 -10 263 17T153 93T80 206T53 345Q53 420 79 484T152 596T261 671T396 698Q469 698 531 671T641 596T714 484T740 344Q740 270 714 206T642 93T533 18T398 -10ZM396 61Q474 61 534 98T629 199T664 345Q664
406 644 457T588 547T504 607T396 628Q319 628 259 592T164 491T129 345Q129 284 149 232T205 142T290 82T396 61ZM335 761L303 793L436 951L492 895L335 761Z" />
<glyph unicode="&#xd4;" horiz-adv-x="794" d="M398 -10Q325 -10 263 17T153 93T80 206T53 345Q53 420 79 484T152 596T261 671T396 698Q469 698 531 671T641 596T714 484T740 344Q740 270 714 206T642 93T533 18T398 -10ZM396 61Q474 61 534 98T629 199T664 345Q664
406 644 457T588 547T504 607T396 628Q319 628 259 592T164 491T129 345Q129 284 149 232T205 142T290 82T396 61ZM264 760L232 792L369 946H425L562 792L530 760L374 896L421 895L264 760Z" />
<glyph unicode="&#xd5;" horiz-adv-x="794" d="M398 -10Q325 -10 263 17T153 93T80 206T53 345Q53 420 79 484T152 596T261 671T396 698Q469 698 531 671T641 596T714 484T740 344Q740 270 714 206T642 93T533 18T398 -10ZM396 61Q474 61 534 98T629 199T664 345Q664
406 644 457T588 547T504 607T396 628Q319 628 259 592T164 491T129 345Q129 284 149 232T205 142T290 82T396 61ZM471 766Q439 766 417 777T375 800T329 811Q302 811 287 801T259 773L220 811Q242 838 266 855T328 872Q361 872 383 861T426 839T470 827Q494 827
509 836T536 864L575 827Q554 799 530 783T471 766Z" />
<glyph unicode="&#xd6;" horiz-adv-x="794" d="M398 -10Q325 -10 263 17T153 93T80 206T53 345Q53 420 79 484T152 596T261 671T396 698Q469 698 531 671T641 596T714 484T740 344Q740 270 714 206T642 93T533 18T398 -10ZM396 61Q474 61 534 98T629 199T664 345Q664
406 644 457T588 547T504 607T396 628Q319 628 259 592T164 491T129 345Q129 284 149 232T205 142T290 82T396 61ZM302 770Q282 770 268 784T254 819Q254 840 268 854T302 868Q324 868 337 854T351 819Q351 799 338 785T302 770ZM492 770Q472 770 458 784T444 819Q444
840 458 854T492 868Q514 868 527 854T541 819Q541 799 528 785T492 770Z" />
<glyph unicode="&#xd7;" horiz-adv-x="537" d="M117 136L71 182L420 531L466 485L117 136ZM413 143L78 478L124 524L459 189L413 143Z" />
<glyph unicode="&#xd8;" horiz-adv-x="794" d="M686 682L734 634L107 6L59 55L686 682ZM398 -10Q325 -10 262 17T152 93T79 206T53 345Q53 420 79 484T151 596T260 671T396 698Q469 698 531 671T640 596T713 484T740 344Q740 270 714 206T641 93T532 18T398 -10ZM396
61Q474 61 534 98T629 199T664 345Q664 406 644 457T588 547T503 607T396 628Q318 628 258 592T164 491T129 345Q129 284 149 232T204 142T289 82T396 61Z" />
<glyph unicode="&#xd9;" horiz-adv-x="676" d="M339 -10Q264 -10 206 23T113 115T79 247V688H153V251Q153 193 177 150T243 84T339 61Q392 61 433 84T499 149T524 250V688H597V246Q597 173 564 115T472 24T339 -10ZM378 756L221 890L277 946L410 788L378 756Z" />
<glyph unicode="&#xda;" horiz-adv-x="676" d="M339 -10Q264 -10 206 23T113 115T79 247V688H153V251Q153 193 177 150T243 84T339 61Q392 61 433 84T499 149T524 250V688H597V246Q597 173 564 115T472 24T339 -10ZM276 761L244 793L377 951L433 895L276 761Z" />
<glyph unicode="&#xdb;" horiz-adv-x="676" d="M339 -10Q264 -10 206 23T113 115T79 247V688H153V251Q153 193 177 150T243 84T339 61Q392 61 433 84T499 149T524 250V688H597V246Q597 173 564 115T472 24T339 -10ZM205 760L173 792L310 946H366L503 792L471 760L315
896L362 895L205 760Z" />
<glyph unicode="&#xdc;" horiz-adv-x="676" d="M339 -10Q264 -10 206 23T113 115T79 247V688H153V251Q153 193 177 150T243 84T339 61Q392 61 433 84T499 149T524 250V688H597V246Q597 173 564 115T472 24T339 -10ZM243 770Q223 770 209 784T195 819Q195 840 209
854T243 868Q265 868 278 854T292 819Q292 799 279 785T243 770ZM433 770Q413 770 399 784T385 819Q385 840 399 854T433 868Q455 868 468 854T482 819Q482 799 469 785T433 770Z" />
<glyph unicode="&#xdd;" horiz-adv-x="659" d="M308 284L35 688H121L348 349H312L541 688H624L349 284H308ZM293 0V337H367V0H293ZM267 761L235 793L368 951L424 895L267 761Z" />
<glyph unicode="&#xde;" horiz-adv-x="608" d="M135 147V211H338Q380 211 413 228T466 277T486 353Q486 396 467 428T414 477T338 494H135V559H343Q405 559 454 534T531 462T560 353Q560 290 532 244T454 173T343 147H135ZM88 0V688H161V0H88Z" />
<glyph unicode="&#xdf;" horiz-adv-x="568" d="M319 -10Q274 -10 240 3T179 42L223 94Q240 77 265 67T321 57Q362 57 391 75T437 124T454 197Q454 237 436 269T384 321T307 340H246V402H279Q316 402 342 419T383 466T398 531Q398 565 383 592T340 636T272 653Q215
653 179 618T142 526V0H71V526Q71 581 96 624T167 693T272 718Q333 718 377 694T445 628T469 535Q469 472 433 427T335 368L340 394Q397 391 440 365T506 296T530 195Q530 151 515 114T473 49T406 6T319 -10Z" />
<glyph unicode="&#xe0;" horiz-adv-x="585" d="M275 -10Q208 -10 155 22T72 110T41 234Q41 304 71 359T155 447T274 480Q328 480 370 459T439 399T472 309V162Q466 111 440 72T371 12T275 -10ZM286 57Q359 57 403 106T448 235Q448 288 428 328T371 391T285 414Q235
414 197 391T136 328T113 235Q113 183 135 143T197 80T286 57ZM444 0V126L458 242L444 355V470H514V0H444ZM337 538L180 672L236 728L369 570L337 538Z" />
<glyph unicode="&#xe1;" horiz-adv-x="585" d="M275 -10Q208 -10 155 22T72 110T41 234Q41 304 71 359T155 447T274 480Q328 480 370 459T439 399T472 309V162Q466 111 440 72T371 12T275 -10ZM286 57Q359 57 403 106T448 235Q448 288 428 328T371 391T285 414Q235
414 197 391T136 328T113 235Q113 183 135 143T197 80T286 57ZM444 0V126L458 242L444 355V470H514V0H444ZM235 543L203 575L336 733L392 677L235 543Z" />
<glyph unicode="&#xe2;" horiz-adv-x="585" d="M275 -10Q208 -10 155 22T72 110T41 234Q41 304 71 359T155 447T274 480Q328 480 370 459T439 399T472 309V162Q466 111 440 72T371 12T275 -10ZM286 57Q359 57 403 106T448 235Q448 288 428 328T371 391T285 414Q235
414 197 391T136 328T113 235Q113 183 135 143T197 80T286 57ZM444 0V126L458 242L444 355V470H514V0H444ZM164 542L132 574L269 728H325L462 574L430 542L274 678L321 677L164 542Z" />
<glyph unicode="&#xe3;" horiz-adv-x="585" d="M275 -10Q208 -10 155 22T72 110T41 234Q41 304 71 359T155 447T274 480Q328 480 370 459T439 399T472 309V162Q466 111 440 72T371 12T275 -10ZM286 57Q359 57 403 106T448 235Q448 288 428 328T371 391T285 414Q235
414 197 391T136 328T113 235Q113 183 135 143T197 80T286 57ZM444 0V126L458 242L444 355V470H514V0H444ZM371 548Q339 548 317 559T275 582T229 593Q202 593 187 583T159 555L120 593Q142 620 166 637T228 654Q261 654 283 643T326 621T370 609Q394 609 409 618T436
646L475 609Q454 581 430 565T371 548Z" />
<glyph unicode="&#xe4;" horiz-adv-x="585" d="M275 -10Q208 -10 155 22T72 110T41 234Q41 304 71 359T155 447T274 480Q328 480 370 459T439 399T472 309V162Q466 111 440 72T371 12T275 -10ZM286 57Q359 57 403 106T448 235Q448 288 428 328T371 391T285 414Q235
414 197 391T136 328T113 235Q113 183 135 143T197 80T286 57ZM444 0V126L458 242L444 355V470H514V0H444ZM202 552Q182 552 168 566T154 601Q154 622 168 636T202 650Q224 650 237 636T251 601Q251 581 238 567T202 552ZM392 552Q372 552 358 566T344 601Q344
622 358 636T392 650Q414 650 427 636T441 601Q441 581 428 567T392 552Z" />
<glyph unicode="&#xe5;" horiz-adv-x="585" d="M275 -10Q208 -10 155 22T72 110T41 234Q41 304 71 359T155 447T274 480Q328 480 370 459T439 399T472 309V162Q466 111 440 72T371 12T275 -10ZM286 57Q359 57 403 106T448 235Q448 288 428 328T371 391T285 414Q235
414 197 391T136 328T113 235Q113 183 135 143T197 80T286 57ZM444 0V126L458 242L444 355V470H514V0H444ZM298 527Q265 527 239 542T198 582T183 640Q183 672 198 697T239 738T298 753Q330 753 355 738T395 698T410 640Q410 608 396 583T356 542T298 527ZM299
580Q322 580 339 597T356 640Q356 666 339 683T299 701Q271 701 255 684T238 640Q238 615 254 598T299 580Z" />
<glyph unicode="&#xe6;" horiz-adv-x="946" d="M696 -10Q625 -10 569 22T481 110T448 236Q448 305 480 360T567 448T690 480Q754 480 803 451T881 371T910 252Q910 244 909 234T905 209H498V269H867L842 247Q843 299 825 336T772 394T688 415Q637 415 599 393T540
332T518 238Q518 184 540 143T603 79T697 56Q740 56 776 71T837 118L882 72Q849 33 801 12T696 -10ZM275 -10Q208 -10 155 22T72 110T41 234Q41 304 71 359T155 447T274 480Q328 480 370 459T439 399T472 309V162Q466 111 440 72T371 12T275 -10ZM286 57Q359 57
403 106T448 235Q448 288 428 328T371 391T285 414Q235 414 197 391T136 328T113 235Q113 183 135 143T197 80T286 57ZM444 0V126L458 242L444 355V470H514V0H444Z" />
<glyph unicode="&#xe7;" horiz-adv-x="491" d="M285 -10Q216 -10 161 22T73 111T40 236Q40 305 72 360T160 448T285 480Q338 480 384 460T462 404L416 357Q392 384 358 398T285 413Q235 413 196 390T135 328T113 236Q113 185 135 145T196 81T285 58Q325 58 359
72T417 114L464 67Q431 30 385 10T285 -10ZM253 -208Q220 -208 191 -198T138 -170L173 -131Q187 -143 206 -150T249 -158Q281 -158 297 -148T314 -120Q314 -102 297 -91T247 -80H211L239 11H297L274 -59L247 -36Q308 -35 342 -58T377 -121Q377 -160 344 -184T253
-208Z" />
<glyph unicode="&#xe8;" horiz-adv-x="538" d="M288 -10Q217 -10 161 22T73 110T40 236Q40 305 72 360T159 448T282 480Q346 480 395 451T473 371T502 252Q502 244 501 234T497 209H90V269H459L434 247Q435 299 417 336T364 394T280 415Q229 415 191 393T132 332T110
238Q110 184 132 143T195 79T289 56Q332 56 368 71T429 118L474 72Q441 33 393 12T288 -10ZM321 538L164 672L220 728L353 570L321 538Z" />
<glyph unicode="&#xe9;" horiz-adv-x="538" d="M288 -10Q217 -10 161 22T73 110T40 236Q40 305 72 360T159 448T282 480Q346 480 395 451T473 371T502 252Q502 244 501 234T497 209H90V269H459L434 247Q435 299 417 336T364 394T280 415Q229 415 191 393T132 332T110
238Q110 184 132 143T195 79T289 56Q332 56 368 71T429 118L474 72Q441 33 393 12T288 -10ZM219 543L187 575L320 733L376 677L219 543Z" />
<glyph unicode="&#xea;" horiz-adv-x="538" d="M288 -10Q217 -10 161 22T73 110T40 236Q40 305 72 360T159 448T282 480Q346 480 395 451T473 371T502 252Q502 244 501 234T497 209H90V269H459L434 247Q435 299 417 336T364 394T280 415Q229 415 191 393T132 332T110
238Q110 184 132 143T195 79T289 56Q332 56 368 71T429 118L474 72Q441 33 393 12T288 -10ZM148 542L116 574L253 728H309L446 574L414 542L258 678L305 677L148 542Z" />
<glyph unicode="&#xeb;" horiz-adv-x="538" d="M288 -10Q217 -10 161 22T73 110T40 236Q40 305 72 360T159 448T282 480Q346 480 395 451T473 371T502 252Q502 244 501 234T497 209H90V269H459L434 247Q435 299 417 336T364 394T280 415Q229 415 191 393T132 332T110
238Q110 184 132 143T195 79T289 56Q332 56 368 71T429 118L474 72Q441 33 393 12T288 -10ZM186 552Q166 552 152 566T138 601Q138 622 152 636T186 650Q208 650 221 636T235 601Q235 581 222 567T186 552ZM376 552Q356 552 342 566T328 601Q328 622 342 636T376
650Q398 650 411 636T425 601Q425 581 412 567T376 552Z" />
<glyph unicode="&#xec;" horiz-adv-x="212" d="M71 0V470H142V0H71ZM402 538L245 672L301 728L434 570L402 538Z" />
<glyph unicode="&#xed;" horiz-adv-x="212" d="M71 0V470H142V0H71ZM300 543L268 575L401 733L457 677L300 543Z" />
<glyph unicode="&#xee;" horiz-adv-x="212" d="M71 0V470H142V0H71ZM229 542L197 574L334 728H390L527 574L495 542L339 678L386 677L229 542Z" />
<glyph unicode="&#xef;" horiz-adv-x="212" d="M71 0V470H142V0H71ZM267 552Q247 552 233 566T219 601Q219 622 233 636T267 650Q289 650 302 636T316 601Q316 581 303 567T267 552ZM457 552Q437 552 423 566T409 601Q409 622 423 636T457 650Q479 650 492 636T506
601Q506 581 493 567T457 552Z" />
<glyph unicode="&#xf0;" horiz-adv-x="565" d="M284 -10Q218 -10 164 22T78 107T46 226Q46 291 76 342T156 422T267 452Q299 452 322 445T364 426T397 395L371 405L157 688H243L459 396Q520 312 520 224Q520 159 489 106T404 22T284 -10ZM283 58Q329 58 366 80T425
140T447 226Q447 274 426 311T367 371T283 394Q238 394 201 372T141 311T119 226Q119 180 141 142T200 81T283 58ZM118 500L98 552L415 669L435 617L118 500Z" />
<glyph unicode="&#xf1;" horiz-adv-x="544" d="M413 0V276Q413 338 377 376T280 415Q239 415 208 397T159 348T141 277L109 295Q109 348 134 390T201 456T299 480Q353 480 395 454T460 384T484 288V0H413ZM71 0V470H141V0H71ZM346 548Q314 548 292 559T250 582T204
593Q177 593 162 583T134 555L95 593Q117 620 141 637T203 654Q236 654 258 643T301 621T345 609Q369 609 384 618T411 646L450 609Q429 581 405 565T346 548Z" />
<glyph unicode="&#xf2;" horiz-adv-x="568" d="M284 -10Q216 -10 161 23T73 112T40 237Q40 305 72 360T160 447T284 480Q353 480 408 448T495 361T528 237Q528 167 496 112T408 23T284 -10ZM284 58Q334 58 372 81T433 145T456 237Q456 288 434 327T373 390T284
413Q235 413 196 390T135 328T113 237Q113 185 135 145T196 81T284 58ZM324 538L167 672L223 728L356 570L324 538Z" />
<glyph unicode="&#xf3;" horiz-adv-x="568" d="M284 -10Q216 -10 161 23T73 112T40 237Q40 305 72 360T160 447T284 480Q353 480 408 448T495 361T528 237Q528 167 496 112T408 23T284 -10ZM284 58Q334 58 372 81T433 145T456 237Q456 288 434 327T373 390T284
413Q235 413 196 390T135 328T113 237Q113 185 135 145T196 81T284 58ZM222 543L190 575L323 733L379 677L222 543Z" />
<glyph unicode="&#xf4;" horiz-adv-x="568" d="M284 -10Q216 -10 161 23T73 112T40 237Q40 305 72 360T160 447T284 480Q353 480 408 448T495 361T528 237Q528 167 496 112T408 23T284 -10ZM284 58Q334 58 372 81T433 145T456 237Q456 288 434 327T373 390T284
413Q235 413 196 390T135 328T113 237Q113 185 135 145T196 81T284 58ZM152 542L120 574L257 728H313L450 574L418 542L262 678L309 677L152 542Z" />
<glyph unicode="&#xf5;" horiz-adv-x="568" d="M284 -10Q216 -10 161 23T73 112T40 237Q40 305 72 360T160 447T284 480Q353 480 408 448T495 361T528 237Q528 167 496 112T408 23T284 -10ZM284 58Q334 58 372 81T433 145T456 237Q456 288 434 327T373 390T284
413Q235 413 196 390T135 328T113 237Q113 185 135 145T196 81T284 58ZM358 548Q326 548 304 559T262 582T216 593Q189 593 174 583T146 555L107 593Q129 620 153 637T215 654Q248 654 270 643T313 621T357 609Q381 609 396 618T423 646L462 609Q441 581 417 565T358
548Z" />
<glyph unicode="&#xf6;" horiz-adv-x="568" d="M284 -10Q216 -10 161 23T73 112T40 237Q40 305 72 360T160 447T284 480Q353 480 408 448T495 361T528 237Q528 167 496 112T408 23T284 -10ZM284 58Q334 58 372 81T433 145T456 237Q456 288 434 327T373 390T284
413Q235 413 196 390T135 328T113 237Q113 185 135 145T196 81T284 58ZM189 552Q169 552 155 566T141 601Q141 622 155 636T189 650Q211 650 224 636T238 601Q238 581 225 567T189 552ZM379 552Q359 552 345 566T331 601Q331 622 345 636T379 650Q401 650 414 636T428
601Q428 581 415 567T379 552Z" />
<glyph unicode="&#xf7;" horiz-adv-x="537" d="M64 302V365H473V302H64ZM268 447Q248 447 234 461T220 496Q220 517 234 531T268 545Q290 545 303 531T317 496Q317 476 304 462T268 447ZM268 123Q248 123 234 137T220 172Q220 193 234 207T268 221Q290 221 303
207T317 172Q317 152 304 138T268 123Z" />
<glyph unicode="&#xf8;" horiz-adv-x="568" d="M75 -21L29 25L495 491L541 445L75 -21ZM284 -10Q216 -10 161 23T73 112T40 237Q40 305 72 360T160 447T284 480Q353 480 408 448T495 361T528 237Q528 167 496 112T408 23T284 -10ZM284 58Q334 58 372 81T433 145T456
237Q456 288 434 327T373 390T284 413Q235 413 196 390T135 328T113 237Q113 185 135 145T196 81T284 58Z" />
<glyph unicode="&#xf9;" horiz-adv-x="515" d="M257 -10Q200 -10 155 16T85 89T59 197V470H130V200Q130 157 145 125T190 75T257 57Q316 57 350 96T385 200V470H455V197Q455 136 430 89T360 16T257 -10ZM297 538L140 672L196 728L329 570L297 538Z" />
<glyph unicode="&#xfa;" horiz-adv-x="515" d="M257 -10Q200 -10 155 16T85 89T59 197V470H130V200Q130 157 145 125T190 75T257 57Q316 57 350 96T385 200V470H455V197Q455 136 430 89T360 16T257 -10ZM195 543L163 575L296 733L352 677L195 543Z" />
<glyph unicode="&#xfb;" horiz-adv-x="515" d="M257 -10Q200 -10 155 16T85 89T59 197V470H130V200Q130 157 145 125T190 75T257 57Q316 57 350 96T385 200V470H455V197Q455 136 430 89T360 16T257 -10ZM125 542L93 574L230 728H286L423 574L391 542L235 678L282
677L125 542Z" />
<glyph unicode="&#xfc;" horiz-adv-x="515" d="M257 -10Q200 -10 155 16T85 89T59 197V470H130V200Q130 157 145 125T190 75T257 57Q316 57 350 96T385 200V470H455V197Q455 136 430 89T360 16T257 -10ZM162 552Q142 552 128 566T114 601Q114 622 128 636T162
650Q184 650 197 636T211 601Q211 581 198 567T162 552ZM352 552Q332 552 318 566T304 601Q304 622 318 636T352 650Q374 650 387 636T401 601Q401 581 388 567T352 552Z" />
<glyph unicode="&#xfd;" horiz-adv-x="510" d="M228 -2L22 470H99L265 76H236L411 470H489L268 -2H228ZM100 -198L229 69L268 -2L177 -198H100ZM193 543L161 575L294 733L350 677L193 543Z" />
<glyph unicode="&#xfe;" horiz-adv-x="585" d="M314 -10Q260 -10 217 12T147 72T113 162V309Q119 361 147 399T218 459T314 480Q379 480 431 448T513 360T544 234Q544 165 514 110T432 23T314 -10ZM71 -198V708H141V350L127 236L141 121V-198H71ZM302 57Q352 57
390 79T450 142T472 235Q472 288 450 328T390 391T303 414Q254 414 217 391T158 328T137 235Q137 183 158 143T216 80T302 57Z" />
<glyph unicode="&#xff;" horiz-adv-x="510" d="M228 -2L22 470H99L265 76H236L411 470H489L268 -2H228ZM100 -198L229 69L268 -2L177 -198H100ZM160 552Q140 552 126 566T112 601Q112 622 126 636T160 650Q182 650 195 636T209 601Q209 581 196 567T160 552ZM350
552Q330 552 316 566T302 601Q302 622 316 636T350 650Q372 650 385 636T399 601Q399 581 386 567T350 552Z" />
<glyph unicode="&#x2013;" horiz-adv-x="545" d="M71 224V284H474V224H71Z" />
<glyph unicode="&#x2014;" horiz-adv-x="843" d="M71 225V283H769V225H71Z" />
<glyph unicode="&#x2018;" horiz-adv-x="246" d="M180 695L123 584L97 578Q101 587 108 593T126 600Q145 600 160 585T176 546Q176 522 159 505T117 487Q94 487 77 504T60 546Q60 556 63 569T78 605L137 718L180 695Z" />
<glyph unicode="&#x2019;" horiz-adv-x="246" d="M67 491L124 602L149 608Q145 598 138 592T121 586Q102 586 87 601T71 639Q71 664 88 681T129 698Q152 698 169 681T187 639Q187 629 184 616T169 581L109 468L67 491Z" />
<glyph unicode="&#x201a;" horiz-adv-x="274" d="M81 -103L138 8L163 14Q159 5 152 -1T135 -8Q116 -8 101 7T85 46Q85 70 102 87T143 105Q166 105 183 88T201 46Q201 36 198 23T183 -13L123 -126L81 -103Z" />
<glyph unicode="&#x201c;" horiz-adv-x="410" d="M180 695L123 584L97 578Q101 587 108 593T126 600Q145 600 160 585T176 546Q176 522 159 505T117 487Q94 487 77 504T60 546Q60 556 63 569T78 605L137 718L180 695ZM344 695L287 584L261 578Q265 587 272 593T290
600Q309 600 324 585T340 546Q340 522 323 505T281 487Q258 487 241 504T224 546Q224 556 227 569T242 605L301 718L344 695Z" />
<glyph unicode="&#x201d;" horiz-adv-x="410" d="M231 491L288 602L313 608Q309 598 302 592T285 586Q266 586 251 601T235 639Q235 664 252 681T293 698Q316 698 333 681T351 639Q351 629 348 616T333 581L273 468L231 491ZM67 491L124 602L149 608Q145 598 138
592T121 586Q102 586 87 601T71 639Q71 664 88 681T129 698Q152 698 169 681T187 639Q187 629 184 616T169 581L109 468L67 491Z" />
<glyph unicode="&#x201e;" horiz-adv-x="438" d="M245 -102L302 9L327 15Q323 5 316 -1T299 -7Q280 -7 265 8T249 46Q249 71 266 88T307 105Q330 105 347 88T365 46Q365 36 362 23T347 -12L287 -125L245 -102ZM81 -102L138 9L163 15Q159 5 152 -1T135 -7Q116 -7
101 8T85 46Q85 71 102 88T143 105Q166 105 183 88T201 46Q201 36 198 23T183 -12L123 -125L81 -102Z" />
<glyph unicode="&#x2022;" horiz-adv-x="318" d="M159 272Q133 272 113 284T82 316T70 362Q70 386 81 406T113 439T159 451Q185 451 205 439T236 407T248 362Q248 337 237 317T205 284T159 272Z" />
<glyph unicode="&#x2039;" horiz-adv-x="271" d="M157 82L43 238L157 394H230L112 238L230 82H157Z" />
<glyph unicode="&#x203a;" horiz-adv-x="271" d="M42 82L159 238L42 394H115L229 238L115 82H42Z" />
</font>
</defs>
</svg>
