<?xml version="1.0" standalone="no"?>
<!DOCTYPE svg PUBLIC "-//W3C//DTD SVG 1.1//EN" "http://www.w3.org/Graphics/SVG/1.1/DTD/svg11.dtd">
<svg xmlns="http://www.w3.org/2000/svg">
<defs >
<font id="Outfit" horiz-adv-x="571" ><font-face
    font-family="Outfit Thin Medium"
    units-per-em="1000"
    panose-1="0 0 0 0 0 0 0 0 0 0"
    ascent="1000"
    descent="-260"
    alphabetic="0" />
<glyph unicode=" " horiz-adv-x="200" />
<glyph unicode="!" horiz-adv-x="262" d="M85 232L70 720H185L170 232H85ZM127 -10Q95 -10 75 11T54 64Q54 96 74 117T127 138Q159 138 179 117T200 64Q200 33 180 12T127 -10Z" />
<glyph unicode="&quot;" horiz-adv-x="426" d="M270 454L245 720H365L340 454H270ZM86 454L61 720H181L156 454H86Z" />
<glyph unicode="#" horiz-adv-x="641" d="M324 0L434 700H527L417 0H324ZM43 210V298H566V210H43ZM108 0L218 700H311L201 0H108ZM74 417V505H598V417H74Z" />
<glyph unicode="$" horiz-adv-x="584" d="M283 -10Q207 -10 151 20T48 108L125 185Q154 143 193 117T287 91Q345 91 379 116T414 187Q414 222 396 244T349 280T284 306T213 332T148 369T100 426T82 515Q82 577 112 620T195 687T311 710Q373 710 426 683T513 614L436
537Q406 571 375 590T308 609Q252 609 222 588T192 523Q192 491 210 472T259 439T324 413T396 386T462 348T510 287T529 194Q529 100 463 45T283 -10ZM267 -100V800H347V-100H267Z" />
<glyph unicode="%" horiz-adv-x="658" d="M50 0L499 700H608L159 0H50ZM475 -10Q436 -10 404 9T352 60T333 132Q333 172 352 203T403 254T475 273Q515 273 547 254T599 204T618 132Q618 92 599 60T548 9T475 -10ZM475 75Q500 75 515 91T531 132Q531 156 515 172T475
188Q451 188 436 172T421 132Q421 107 436 91T475 75ZM182 427Q143 427 111 446T59 497T40 569Q40 609 59 640T110 691T182 710Q222 710 254 691T306 641T325 569Q325 529 306 497T255 446T182 427ZM182 512Q207 512 222 528T237 569Q237 594 222 609T182 625Q158
625 143 610T128 569Q128 544 143 528T182 512Z" />
<glyph unicode="&amp;" horiz-adv-x="669" d="M527 0L195 363Q158 404 140 441T121 523Q121 576 147 618T218 686T321 711Q365 711 401 697T464 659T510 607L431 537Q409 567 384 586T321 605Q283 605 257 583T231 526Q231 492 245 470T284 419L659 0H527ZM288
-10Q216 -10 163 17T80 93T50 204Q50 267 84 317T186 398L237 331Q200 311 180 282T160 207Q160 171 176 146T223 108T292 94Q343 94 376 115T427 165L499 81Q478 55 445 35T372 2T288 -10Z" />
<glyph unicode="&apos;" horiz-adv-x="242" d="M86 454L61 720H181L156 454H86Z" />
<glyph unicode="(" horiz-adv-x="299" d="M212 -119Q159 -72 121 -4T61 145T40 313Q40 400 61 481T120 630T212 745L275 689Q209 628 173 532T136 313Q136 192 172 95T275 -63L212 -119Z" />
<glyph unicode=")" horiz-adv-x="299" d="M87 -119L24 -63Q90 -2 126 95T163 313Q163 435 127 531T24 689L87 745Q140 698 178 630T238 481T259 313Q259 226 238 145T179 -4T87 -119Z" />
<glyph unicode="*" horiz-adv-x="491" d="M222 327L217 485L88 398L42 487L188 540L67 634L138 705L232 584L285 730L375 684L287 555L445 550L429 451L278 495L322 343L222 327Z" />
<glyph unicode="+" horiz-adv-x="547" d="M53 285V385H494V285H53ZM223 566H325V105H223V566Z" />
<glyph unicode="," horiz-adv-x="276" d="M61 -117L129 10L166 20Q160 8 152 0T133 -8Q110 -8 91 11T71 61Q71 93 92 115T146 138Q176 138 198 116T221 61Q221 48 216 31T196 -14L122 -150L61 -117Z" />
<glyph unicode="-" horiz-adv-x="461" d="M61 203V307H400V203H61Z" />
<glyph unicode="." horiz-adv-x="290" d="M145 -10Q113 -10 93 11T72 64Q72 96 92 117T145 138Q177 138 197 117T218 64Q218 33 198 12T145 -10Z" />
<glyph unicode="/" horiz-adv-x="401" d="M9 -40L289 740H392L112 -40H9Z" />
<glyph unicode="0" horiz-adv-x="655" d="M329 -10Q250 -10 185 34T80 160T41 351Q41 461 79 541T183 666T327 710Q407 710 472 666T575 542T614 350Q614 240 576 159T473 34T329 -10ZM327 98Q379 98 417 126T476 210T498 351Q498 435 477 491T417 574T327 602Q276
602 238 575T178 492T157 351Q157 266 178 210T237 126T327 98Z" />
<glyph unicode="1" horiz-adv-x="355" d="M166 0V700H279V0H166ZM26 597V700H269V597H26Z" />
<glyph unicode="2" horiz-adv-x="541" d="M28 68L286 342Q318 376 338 403T367 454T376 503Q376 550 346 576T268 603Q218 603 180 578T112 500L32 566Q73 637 133 673T272 710Q337 710 386 684T462 612T489 504Q489 460 479 426T443 357T374 276L176 71L28 68ZM28
0V68L127 103H503V0H28Z" />
<glyph unicode="3" horiz-adv-x="540" d="M246 -10Q176 -10 120 15T24 90L102 168Q123 136 161 117T244 98Q287 98 318 114T366 159T384 226Q384 266 367 294T317 337T238 353Q220 353 201 351T167 343L218 409Q239 417 262 422T308 428Q362 428 405 402T474 330T500
220Q500 152 468 100T379 19T246 -10ZM167 343V411L354 629L492 632L297 408L167 343ZM59 597V700H492V632L393 597H59Z" />
<glyph unicode="4" horiz-adv-x="599" d="M28 250L277 700H407L152 250H28ZM28 180V250L77 283H571V180H28ZM360 0V458H473V0H360Z" />
<glyph unicode="5" horiz-adv-x="545" d="M247 -10Q174 -10 117 15T21 90L99 168Q120 136 158 117T245 98Q289 98 322 114T374 160T393 231Q393 274 375 302T326 345T260 360Q220 360 189 351T127 319L130 391Q146 412 167 425T216 446T282 453Q356 453 406 422T483
340T509 225Q509 157 476 104T383 21T247 -10ZM127 319L64 382L95 700H200L164 369L127 319ZM115 597L95 700H470V597H115Z" />
<glyph unicode="6" horiz-adv-x="562" d="M281 -10Q211 -10 155 22T67 110T34 232Q34 328 101 426L292 700H425L221 413L179 388Q189 411 204 427T245 453T309 462Q370 462 419 434T499 355T529 236Q529 168 496 112T407 23T281 -10ZM281 98Q319 98 349 116T396
165T414 236Q414 275 397 306T349 354T281 372Q243 372 213 354T166 306T149 236Q149 197 166 166T213 116T281 98Z" />
<glyph unicode="7" horiz-adv-x="522" d="M126 0L381 630H495L246 0H126ZM26 597V700H495V630L446 597H26Z" />
<glyph unicode="8" horiz-adv-x="548" d="M274 -10Q202 -10 149 16T67 88T37 194Q37 241 55 280T109 348T194 388L191 356Q151 367 124 392T82 451T68 522Q68 578 94 620T168 687T274 711Q334 711 380 687T453 621T480 522Q480 485 466 451T425 392T357 356L354
388Q404 376 439 348T492 281T511 194Q511 135 482 89T400 16T274 -10ZM274 94Q311 94 339 109T384 150T401 209Q401 243 385 268T340 309T274 324Q237 324 209 309T164 269T147 209Q147 176 163 150T208 109T274 94ZM274 414Q318 414 346 442T374 514Q374 558
346 585T274 613Q231 613 203 586T174 514Q174 470 202 442T274 414Z" />
<glyph unicode="9" horiz-adv-x="562" d="M137 0L342 287L383 312Q373 290 358 273T317 247T253 238Q193 238 143 266T63 346T33 464Q33 532 66 588T156 677T281 710Q351 710 407 678T495 591T528 468Q528 372 461 274L270 0H137ZM281 328Q319 328 349 346T396
395T413 464Q413 504 396 535T349 584T281 602Q243 602 213 584T166 535T148 464Q148 425 165 395T213 346T281 328Z" />
<glyph unicode=":" horiz-adv-x="271" d="M135 -10Q103 -10 83 11T62 64Q62 96 82 117T135 138Q167 138 187 117T208 64Q208 33 188 12T135 -10ZM135 299Q103 299 83 320T62 373Q62 405 82 426T135 447Q167 447 187 426T208 373Q208 342 188 321T135 299Z" />
<glyph unicode=";" horiz-adv-x="269" d="M55 -117L123 10L160 20Q154 8 146 0T127 -8Q104 -8 85 11T65 61Q65 93 87 115T140 138Q170 138 192 116T215 61Q215 48 210 31T190 -14L116 -150L55 -117ZM135 299Q103 299 83 320T62 373Q62 405 82 426T135 447Q167
447 187 426T208 373Q208 342 188 321T135 299Z" />
<glyph unicode="&lt;" horiz-adv-x="547" d="M494 100L53 295V375L494 570V459L145 315V355L494 211V100Z" />
<glyph unicode="=" horiz-adv-x="547" d="M53 400V500H494V400H53ZM53 170V270H494V170H53Z" />
<glyph unicode="&gt;" horiz-adv-x="547" d="M53 459V570L494 375V295L53 100V211L402 355V315L53 459Z" />
<glyph unicode="?" horiz-adv-x="506" d="M214 232V425H241Q274 425 298 437T336 472T350 525Q350 555 337 577T300 611T243 623Q200 623 167 600T113 530L33 596Q63 661 119 695T249 730Q312 730 360 705T436 636T463 533Q463 479 440 437T373 367T271 328L319
377L309 232H214ZM261 -10Q229 -10 209 11T188 64Q188 96 208 117T261 138Q293 138 313 117T334 64Q334 33 314 12T261 -10Z" />
<glyph unicode="@" horiz-adv-x="737" d="M371 -94Q302 -94 242 -69T137 0T67 105T42 235Q42 306 67 366T139 471T246 541T377 566Q471 566 542 524T654 408T695 238Q695 195 687 160T659 94L565 97Q580 116 589 138T602 186T607 245Q607 321 581 373T503 453T379
481Q304 481 249 451T165 366T135 234Q135 159 163 105T245 21T369 -9Q419 -9 459 4T530 45L590 -16Q546 -54 491 -74T371 -94ZM352 88Q314 88 282 107T231 160T211 235Q211 277 230 310T282 364T352 384Q400 384 429 362T459 292V180Q459 134 430 111T352 88ZM358
163Q389 163 407 183T426 236Q426 269 408 289T358 309Q328 309 309 289T290 236Q290 204 309 184T358 163ZM470 94V164H659V94H470ZM434 94V170L445 240L434 308V378H511V94H434Z" />
<glyph unicode="A" horiz-adv-x="702" d="M24 0L312 700H392L678 0H554L330 567H372L146 0H24ZM166 135V235H537V135H166Z" />
<glyph unicode="B" horiz-adv-x="622" d="M155 0V100H356Q409 100 438 133T467 209Q467 238 454 263T416 303T356 318H155V418H339Q384 418 411 441T438 509Q438 554 411 577T339 600H155V700H342Q413 700 460 674T530 607T553 519Q553 464 523 422T433 354L442
390Q508 363 545 314T582 199Q582 145 556 100T478 28T351 0H155ZM76 0V700H191V0H76Z" />
<glyph unicode="C" horiz-adv-x="683" d="M394 -10Q318 -10 254 17T141 94T67 209T41 350Q41 425 67 490T141 605T253 682T394 710Q479 710 541 682T651 606L573 528Q542 562 498 581T394 600Q342 600 299 582T225 531T176 451T159 350Q159 295 176 249T224 170T299
118T394 100Q458 100 502 119T578 173L656 95Q608 46 543 18T394 -10Z" />
<glyph unicode="D" horiz-adv-x="740" d="M155 0V105H339Q411 105 465 136T550 222T581 351Q581 423 550 478T465 564T339 595H155V700H342Q418 700 483 674T596 600T672 489T699 350Q699 276 672 212T597 101T484 27T344 0H155ZM76 0V700H191V0H76Z" />
<glyph unicode="E" horiz-adv-x="590" d="M76 0V700H191V0H76ZM155 0V105H547V0H155ZM155 307V408H513V307H155ZM155 595V700H542V595H155Z" />
<glyph unicode="F" horiz-adv-x="566" d="M76 0V700H191V0H76ZM155 300V405H511V300H155ZM155 595V700H528V595H155Z" />
<glyph unicode="G" horiz-adv-x="772" d="M392 -10Q320 -10 256 18T144 95T69 210T41 351Q41 426 68 491T144 605T258 682T400 710Q483 710 554 678T673 587L595 509Q564 553 512 576T400 600Q328 600 274 569T189 481T159 351Q159 277 189 221T272 132T390 100Q460
100 510 125T588 201T615 326L687 274H388V379H734V363Q734 238 690 155T568 31T392 -10Z" />
<glyph unicode="H" horiz-adv-x="712" d="M76 0V700H191V0H76ZM521 0V700H636V0H521ZM155 310V415H546V310H155Z" />
<glyph unicode="I" horiz-adv-x="267" d="M76 0V700H191V0H76Z" />
<glyph unicode="J" horiz-adv-x="494" d="M208 -10Q147 -10 100 14T23 80L104 154Q121 128 147 114T204 100Q238 100 262 114T299 154T312 216V700H427V225Q427 155 400 102T323 20T208 -10Z" />
<glyph unicode="K" horiz-adv-x="672" d="M499 0L175 365L492 700H639L289 336V399L649 0H499ZM76 0V700H191V0H76Z" />
<glyph unicode="L" horiz-adv-x="550" d="M76 0V700H191V0H76ZM155 0V105H521V0H155Z" />
<glyph unicode="M" horiz-adv-x="842" d="M76 0V700H156L447 221H395L686 700H766V0H651V498L677 491L461 136H381L165 491L191 498V0H76Z" />
<glyph unicode="N" horiz-adv-x="717" d="M76 0V700H156L191 568V0H76ZM561 0L142 547L156 700L575 153L561 0ZM561 0L526 123V700H641V0H561Z" />
<glyph unicode="O" horiz-adv-x="794" d="M398 -10Q323 -10 258 18T144 95T68 210T40 351Q40 426 67 491T143 605T256 682T396 710Q471 710 535 683T649 606T725 491T753 350Q753 275 726 210T650 95T537 18T398 -10ZM396 100Q467 100 520 132T604 220T635 351Q635
406 618 451T568 530T493 582T396 600Q326 600 273 569T189 481T158 351Q158 296 175 250T224 170T300 119T396 100Z" />
<glyph unicode="P" horiz-adv-x="604" d="M155 264V364H330Q366 364 393 378T437 419T453 482Q453 518 437 544T394 585T330 600H155V700H336Q402 700 454 673T537 597T568 482Q568 416 538 367T455 291T336 264H155ZM76 0V700H191V0H76Z" />
<glyph unicode="Q" horiz-adv-x="820" d="M399 -10Q324 -10 259 18T145 95T69 210T41 351Q41 426 68 491T144 605T257 682T397 710Q472 710 536 683T650 606T726 491T754 350Q754 275 727 210T651 95T538 18T399 -10ZM719 -48L404 267L478 341L793 26L719 -48ZM397
100Q468 100 521 132T605 220T636 351Q636 406 619 451T569 530T494 582T397 600Q327 600 274 569T190 481T159 351Q159 296 176 250T225 170T301 119T397 100Z" />
<glyph unicode="R" horiz-adv-x="628" d="M155 297V392H332Q385 392 414 419T444 496Q444 540 415 570T333 600H155V700H338Q404 700 454 674T531 602T559 498Q559 437 532 392T454 322T338 297H155ZM76 0V700H191V0H76ZM460 0L215 304L322 343L605 0H460Z" />
<glyph unicode="S" horiz-adv-x="556" d="M271 -10Q188 -10 130 20T26 108L104 186Q133 144 173 121T275 97Q333 97 367 121T402 187Q402 222 384 244T337 280T272 306T201 332T136 369T88 426T70 515Q70 577 100 620T183 687T299 710Q368 710 422 683T511 614L433
536Q403 570 371 586T296 603Q244 603 215 582T185 523Q185 491 203 472T250 439T315 413T386 386T451 348T499 287T517 194Q517 100 451 45T271 -10Z" />
<glyph unicode="T" horiz-adv-x="619" d="M252 0V680H367V0H252ZM24 595V700H595V595H24Z" />
<glyph unicode="U" horiz-adv-x="690" d="M346 -10Q267 -10 204 26T105 124T68 266V700H183V267Q183 216 204 179T263 121T346 100Q393 100 429 120T486 178T507 266V700H622V265Q622 186 586 124T488 26T346 -10Z" />
<glyph unicode="V" horiz-adv-x="696" d="M307 0L24 700H149L370 133H326L549 700H672L387 0H307Z" />
<glyph unicode="W" horiz-adv-x="982" d="M256 0L26 700H139L312 161H282L451 700H531L700 161H670L843 700H956L726 0H646L476 538H506L336 0H256Z" />
<glyph unicode="X" horiz-adv-x="698" d="M540 0L334 312H313L36 700H172L379 406H400L674 0H540ZM24 0L290 374L369 307L153 0H24ZM408 335L329 402L533 700H662L408 335Z" />
<glyph unicode="Y" horiz-adv-x="672" d="M295 280L22 700H155L368 365H306L519 700H650L375 280H295ZM279 0V352H394V0H279Z" />
<glyph unicode="Z" horiz-adv-x="589" d="M34 80L416 620H551L169 80H34ZM34 0V80L133 105H543V0H34ZM57 595V700H551V620L451 595H57Z" />
<glyph unicode="[" horiz-adv-x="341" d="M73 -96V720H165V-96H73ZM118 -96V-9H309V-96H118ZM118 633V720H309V633H118Z" />
<glyph unicode="\" horiz-adv-x="401" d="M289 -40L9 740H112L392 -40H289Z" />
<glyph unicode="]" horiz-adv-x="341" d="M176 -96V720H268V-96H176ZM32 -96V-9H223V-96H32ZM32 633V720H223V633H32Z" />
<glyph unicode="^" horiz-adv-x="451" d="M315 457L203 661H249L136 457H45L189 720H261L406 457H315Z" />
<glyph unicode="_" horiz-adv-x="481" d="M0 -135V-40H481V-135H0Z" />
<glyph unicode="`" horiz-adv-x="293" d="M203 539L40 667L125 752L253 589L203 539Z" />
<glyph unicode="a" horiz-adv-x="580" d="M262 -10Q197 -10 145 23T62 112T31 239Q31 310 61 366T144 456T262 490Q317 490 359 467T427 402T452 309V171Q452 119 428 78T360 14T262 -10ZM280 94Q341 94 378 135T416 240Q416 283 399 316T352 367T280 386Q240
386 210 368T162 316T144 240Q144 197 161 164T209 113T280 94ZM409 0V129L428 246L409 362V480H519V0H409Z" />
<glyph unicode="b" horiz-adv-x="580" d="M318 -10Q263 -10 220 13T153 78T128 171V309Q128 361 153 402T221 466T318 490Q383 490 435 457T518 367T549 239Q549 169 519 113T436 23T318 -10ZM61 0V720H171V362L152 246L171 129V0H61ZM300 94Q340 94 370 112T418
164T436 240Q436 283 419 316T371 367T300 386Q260 386 229 368T181 316T164 240Q164 197 181 164T229 113T300 94Z" />
<glyph unicode="c" horiz-adv-x="487" d="M282 -10Q211 -10 154 23T63 113T30 240Q30 311 63 367T153 457T282 490Q338 490 386 469T469 407L397 334Q376 359 347 371T282 384Q241 384 210 366T161 315T143 240Q143 198 160 166T209 115T282 96Q317 96 346 108T397
146L469 73Q435 33 387 12T282 -10Z" />
<glyph unicode="d" horiz-adv-x="580" d="M262 -10Q197 -10 145 23T62 112T31 239Q31 310 61 366T144 456T262 490Q317 490 359 467T427 402T452 309V171Q452 119 428 78T360 14T262 -10ZM280 94Q321 94 351 112T399 164T416 240Q416 283 399 316T352 367T281
386Q240 386 210 368T162 316T144 240Q144 197 161 164T209 113T280 94ZM519 0H409V129L428 246L409 362V720H519V0Z" />
<glyph unicode="e" horiz-adv-x="534" d="M284 -10Q212 -10 155 22T64 112T30 240Q30 311 63 367T152 457T278 490Q345 490 396 459T477 374T507 251Q507 239 506 227T501 199H107V289H444L403 253Q401 297 386 327T344 373T276 389Q234 389 203 371T155 321T138
243Q138 198 156 164T207 112T283 93Q320 93 351 106T405 144L475 73Q440 32 390 11T284 -10Z" />
<glyph unicode="f" horiz-adv-x="403" d="M127 0V543Q127 598 151 640T219 706T320 730Q364 730 395 715T453 672L382 601Q370 613 356 620T320 627Q280 627 259 606T237 544V0H127ZM12 380V480H382V380H12Z" />
<glyph unicode="g" horiz-adv-x="575" d="M261 -210Q185 -210 128 -183T36 -105L108 -33Q137 -69 174 -87T263 -105Q328 -105 366 -72T404 20V138L423 244L404 351V480H514V20Q514 -49 482 -100T393 -181T261 -210ZM256 10Q192 10 141 41T60 128T30 251Q30 319
59 373T140 458T256 490Q313 490 356 467T423 404T447 309V191Q447 138 423 97T355 33T256 10ZM278 114Q318 114 348 131T394 178T411 250Q411 291 395 321T348 369T278 386Q238 386 208 369T160 322T143 250Q143 210 160 179T207 131T278 114Z" />
<glyph unicode="h" horiz-adv-x="551" d="M390 0V277Q390 325 360 356T281 387Q249 387 224 373T185 334T171 277L128 301Q128 356 152 398T218 465T314 490Q368 490 410 466T476 400T500 301V0H390ZM61 0V720H171V0H61Z" />
<glyph unicode="i" horiz-adv-x="234" d="M62 0V480H172V0H62ZM117 568Q89 568 71 587T52 634Q52 662 70 681T117 700Q146 700 164 681T182 634Q182 606 164 587T117 568Z" />
<glyph unicode="j" horiz-adv-x="242" d="M13 -210Q-38 -210 -70 -194T-130 -147L-59 -76Q-47 -92 -32 -99T5 -107Q32 -107 51 -91T71 -42V480H181V-41Q181 -96 158 -133T96 -190T13 -210ZM128 568Q100 568 82 587T63 634Q63 662 81 681T128 700Q157 700 175 681T193
634Q193 606 175 587T128 568Z" />
<glyph unicode="k" horiz-adv-x="511" d="M366 0L163 245L365 480H496L264 216L269 279L506 0H366ZM61 0V720H171V0H61Z" />
<glyph unicode="l" horiz-adv-x="232" d="M61 0V720H171V0H61Z" />
<glyph unicode="m" horiz-adv-x="861" d="M61 0V480H171V0H61ZM380 0V286Q380 334 350 360T276 387Q246 387 223 375T185 341T171 286L128 310Q128 365 152 405T217 467T309 490Q360 490 401 468T466 406T490 310V0H380ZM699 0V286Q699 334 669 360T595 387Q566
387 542 375T504 341T490 286L428 310Q433 365 460 405T529 467T623 490Q675 490 717 468T784 406T809 310V0H699Z" />
<glyph unicode="n" horiz-adv-x="551" d="M390 0V277Q390 325 360 356T281 387Q249 387 224 373T185 334T171 277L128 301Q128 356 152 398T218 465T314 490Q368 490 410 463T476 392T500 301V0H390ZM61 0V480H171V0H61Z" />
<glyph unicode="o" horiz-adv-x="563" d="M281 -10Q211 -10 154 23T64 114T30 241Q30 311 63 367T154 456T281 490Q352 490 409 457T499 368T533 241Q533 171 500 114T409 24T281 -10ZM281 96Q322 96 353 114T402 166T420 241Q420 283 402 315T353 365T281 384Q241
384 210 366T161 315T143 241Q143 199 160 166T209 115T281 96Z" />
<glyph unicode="p" horiz-adv-x="580" d="M318 -10Q263 -10 220 13T153 78T128 171V309Q128 361 153 402T221 466T318 490Q383 490 435 457T518 367T549 239Q549 169 519 113T436 23T318 -10ZM61 -200V480H171V351L152 234L171 118V-200H61ZM300 94Q340 94 370
112T418 164T436 240Q436 283 419 316T371 367T300 386Q260 386 229 368T181 316T164 240Q164 197 181 164T229 113T300 94Z" />
<glyph unicode="q" horiz-adv-x="580" d="M262 -10Q197 -10 145 23T62 112T31 239Q31 310 61 366T144 456T262 490Q317 490 359 467T427 402T452 309V171Q452 119 428 78T360 14T262 -10ZM280 94Q341 94 378 135T416 240Q416 283 399 316T352 367T280 386Q240
386 210 368T162 316T144 240Q144 197 161 164T209 113T280 94ZM409 -200V118L428 234L409 351V480H519V-200H409Z" />
<glyph unicode="r" horiz-adv-x="425" d="M61 0V480H171V0H61ZM171 267L133 286Q133 377 173 433T296 490Q332 490 361 477T415 435L343 361Q330 375 314 381T277 387Q231 387 201 358T171 267Z" />
<glyph unicode="s" horiz-adv-x="430" d="M218 -10Q178 -10 141 0T73 30T19 78L89 148Q114 119 146 105T220 90Q257 90 276 101T295 133Q295 155 277 167T231 187T171 205T111 229T64 272T46 342Q46 388 67 421T128 472T223 490Q281 490 325 470T400 408L330 338Q309
364 282 377T220 390Q187 390 169 380T151 351Q151 331 169 320T215 301T275 284T335 258T382 214T400 142Q400 72 351 31T218 -10Z" />
<glyph unicode="t" horiz-adv-x="378" d="M134 0V680H244V0H134ZM19 380V480H359V380H19Z" />
<glyph unicode="u" horiz-adv-x="517" d="M258 -10Q197 -10 150 17T76 91T49 201V480H159V206Q159 171 170 147T204 109T258 96Q306 96 331 124T357 206V480H467V201Q467 138 441 91T367 17T258 -10Z" />
<glyph unicode="v" horiz-adv-x="510" d="M223 0L4 480H126L293 89H221L389 480H506L287 0H223Z" />
<glyph unicode="w" horiz-adv-x="754" d="M201 0L8 480H122L252 131L218 130L345 480H409L536 130L502 131L632 480H746L553 0H489L359 332H395L265 0H201Z" />
<glyph unicode="x" horiz-adv-x="509" d="M365 0L227 203L207 221L21 480H154L277 302L296 285L497 0H365ZM12 0L206 269L270 190L140 0H12ZM306 223L241 301L361 480H488L306 223Z" />
<glyph unicode="y" horiz-adv-x="518" d="M216 -5L11 480H132L272 124H237L385 480H507L284 -5H216ZM73 -200L222 107L284 -5L195 -200H73Z" />
<glyph unicode="z" horiz-adv-x="451" d="M25 60L293 420H422L154 60H25ZM25 0V60L125 100H416V0H25ZM43 380V480H422V420L322 380H43Z" />
<glyph unicode="{" horiz-adv-x="326" d="M238 -96Q157 -96 119 -53T87 74L98 204Q101 239 91 255T53 271H25V356H53Q81 356 91 372T98 423L87 550Q80 633 118 676T238 720H294V633H246Q204 633 190 615T179 554L188 443Q192 401 185 372T154 324T86 293V331Q130
321 153 303T184 255T188 184L179 70Q176 28 190 10T246 -9H294V-96H238Z" />
<glyph unicode="|" horiz-adv-x="282" d="M91 -130V770H191V-130H91Z" />
<glyph unicode="}" horiz-adv-x="326" d="M88 -96H32V-9H80Q122 -9 136 9T147 70L138 184Q135 226 142 255T172 302T240 331V293Q196 305 173 324T142 372T138 443L147 554Q151 596 137 614T80 633H32V720H88Q169 720 208 677T239 550L228 423Q225 389 235 373T273
356H301V271H273Q245 271 235 255T228 204L239 74Q246 -9 208 -52T88 -96Z" />
<glyph unicode="~" horiz-adv-x="547" d="M358 272Q329 272 308 279T268 295T233 312T193 319Q170 319 150 309T111 279L49 342Q76 383 111 403T190 424Q219 424 240 417T280 401T315 384T355 377Q378 377 398 387T437 417L499 354Q472 314 437 293T358 272Z" />
<glyph unicode="&#xa0;" horiz-adv-x="200" />
<glyph unicode="&#xa1;" horiz-adv-x="269" d="M77 -200L92 248H177L192 -200H77ZM134 342Q102 342 82 363T61 416Q61 448 81 469T134 490Q166 490 186 469T207 416Q207 385 187 364T134 342Z" />
<glyph unicode="&#xa2;" horiz-adv-x="527" d="M300 100Q229 100 172 133T81 223T48 350Q48 421 81 477T171 567T300 600Q356 600 404 579T487 517L415 444Q394 469 365 481T300 494Q259 494 228 476T179 425T161 350Q161 308 178 276T227 225T300 206Q335 206
364 218T415 256L487 183Q453 143 405 122T300 100ZM253 10V690H333V10H253Z" />
<glyph unicode="&#xa3;" horiz-adv-x="621" d="M152 0V480Q152 552 181 603T261 682T376 710Q449 710 495 681T568 609L493 534Q471 568 445 586T375 605Q343 605 319 591T281 552T267 490V0H152ZM62 0V105H553V0H62ZM62 293V383H451V293H62Z" />
<glyph unicode="&#xa4;" horiz-adv-x="599" d="M299 147Q241 147 194 174T119 247T91 350Q91 407 118 452T193 525T299 552Q358 552 405 526T480 453T508 350Q508 293 481 247T406 174T299 147ZM121 115L64 171L157 265L214 208L121 115ZM299 249Q328 249 349
262T383 297T396 350Q396 380 384 402T350 437T299 450Q271 450 249 437T215 402T203 350Q203 321 215 298T249 262T299 249ZM478 115L384 208L441 265L534 171L478 115ZM157 435L64 528L121 585L214 492L157 435ZM441 435L384 492L478 585L534 528L441 435Z" />
<glyph unicode="&#xa5;" horiz-adv-x="642" d="M280 270L47 700H180L353 340H291L464 700H595L360 270H280ZM264 0V332H379V0H264ZM223 483L254 393H67V483H223ZM67 218V308H575V218H67ZM397 393L437 483H575V393H397Z" />
<glyph unicode="&#xa6;" horiz-adv-x="282" d="M91 395V770H191V395H91ZM91 -130V245H191V-130H91Z" />
<glyph unicode="&#xa7;" horiz-adv-x="515" d="M262 139L264 220Q306 220 329 236T353 284Q353 314 333 331T282 358T215 380T148 410T96 459T76 542Q76 593 99 631T165 689T267 710Q329 710 378 686T459 615L388 544Q365 576 334 592T264 608Q225 608 204 592T182
549Q182 522 202 506T253 479T320 455T387 424T439 374T459 293Q459 245 433 211T363 158T262 139ZM248 -121Q186 -121 137 -97T56 -26L127 45Q150 13 181 -3T251 -19Q290 -19 311 -3T333 40Q333 67 313 83T262 110T195 134T128 165T76 215T56 296Q56 345 82 379T153
431T253 450L251 369Q209 369 186 353T162 305Q162 275 182 258T233 231T300 209T367 179T419 130T439 47Q439 -4 416 -41T351 -100T248 -121Z" />
<glyph unicode="&#xa8;" horiz-adv-x="460" d="M125 558Q97 558 79 577T60 624Q60 652 78 671T125 690Q154 690 172 671T190 624Q190 596 172 577T125 558ZM335 558Q307 558 289 577T270 624Q270 652 288 671T335 690Q364 690 382 671T400 624Q400 596 382 577T335 558Z" />
<glyph unicode="&#xa9;" horiz-adv-x="824" d="M413 -10Q335 -10 270 17T156 94T82 209T56 351Q56 427 82 492T155 606T268 682T411 709Q490 709 555 682T668 606T742 492T768 350Q768 274 742 209T669 94T556 18T413 -10ZM423 149Q365 149 319 175T245 247T218
350Q218 407 245 452T319 524T424 551Q468 551 507 535T574 486L510 421Q494 440 472 449T424 458Q394 458 370 445T333 407T319 350Q319 318 332 294T370 256T424 242Q453 242 474 252T510 280L574 215Q546 183 507 166T423 149ZM411 34Q503 34 573 76T682 190T722
351Q722 439 683 510T573 623T411 665Q320 665 250 624T141 511T102 351Q102 262 141 190T250 76T411 34Z" />
<glyph unicode="&#xaa;" horiz-adv-x="355" d="M155 403Q115 403 84 423T34 477T15 554Q15 598 33 632T83 686T155 706Q201 706 231 679T264 614V495Q262 458 232 431T155 403ZM172 482Q202 482 221 502T240 555Q240 587 221 607T172 627Q142 627 123 607T104
555Q104 523 123 503T172 482ZM236 409V487L249 558L236 628V700H322V409H236Z" />
<glyph unicode="&#xab;" horiz-adv-x="476" d="M136 81L32 242L136 403H246L137 242L246 81H136ZM335 81L231 242L335 403H445L336 242L445 81H335Z" />
<glyph unicode="&#xac;" horiz-adv-x="547" d="M53 335V435H494V335H53ZM392 416H494V175H392V416Z" />
<glyph unicode="&#xae;" horiz-adv-x="558" d="M279 270Q216 270 167 299T89 379T61 491Q61 553 88 602T165 681T278 710Q342 710 391 681T469 603T497 491Q497 429 469 379T392 299T279 270ZM206 378V609H244V378H206ZM332 378L251 479H296L380 378H332ZM278
302Q333 302 374 327T440 395T464 491Q464 544 440 586T375 653T278 678Q224 678 183 653T118 586T94 491Q94 438 117 395T182 327T278 302ZM231 476V508H290Q307 508 317 517T327 542Q327 556 317 566T290 576H231V609H292Q324 609 344 591T365 543Q365 512 345
494T292 476H231Z" />
<glyph unicode="&#xaf;" horiz-adv-x="456" d="M40 668H416V578H40V668Z" />
<glyph unicode="&#xb0;" horiz-adv-x="392" d="M196 396Q149 396 113 416T57 472T36 552Q36 597 56 632T113 689T196 710Q243 710 279 689T335 633T356 552Q356 508 336 473T279 417T196 396ZM196 483Q225 483 243 503T262 552Q262 583 244 602T196 622Q167 622
149 603T130 552Q130 524 148 504T196 483Z" />
<glyph unicode="&#xb1;" horiz-adv-x="547" d="M53 355V455H494V355H53ZM223 576H325V235H223V576ZM53 95V195H494V95H53Z" />
<glyph unicode="&#xb2;" horiz-adv-x="340" d="M32 398L174 540Q188 554 192 564T197 584Q197 601 186 611T156 622Q139 622 125 612T93 577L28 635Q51 672 86 689T164 706Q225 706 260 675T295 588Q295 557 283 532T241 479L151 394L32 398ZM32 344V398L115 426H302V344H32Z"
/>
<glyph unicode="&#xb3;" horiz-adv-x="338" d="M150 338Q112 338 80 351T24 387L87 449Q96 436 114 429T149 421Q172 421 186 432T201 464Q201 484 185 495T143 506Q133 506 122 505T104 501L148 555Q174 561 185 563T203 565Q244 565 271 537T298 461Q298 406
258 372T150 338ZM104 501V555L183 647H289L208 555L104 501ZM51 618V700H289V647L216 618H51Z" />
<glyph unicode="&#xb4;" horiz-adv-x="293" d="M90 549L40 599L168 762L253 677L90 549Z" />
<glyph unicode="&#xb5;" horiz-adv-x="576" d="M91 -190V480H201V-190H91ZM319 -10Q235 -10 192 43T148 179L201 203Q201 146 231 121T301 96Q342 96 370 121T399 203V480H509V189Q509 132 485 87T419 16T319 -10Z" />
<glyph unicode="&#xb6;" horiz-adv-x="719" d="M383 264H281Q215 264 163 291T80 367T49 482Q49 548 79 597T162 673T281 700H676V600H287Q251 600 224 586T180 545T164 482Q164 446 180 420T223 379T287 364H383V264ZM421 -100H326V700H421V-100ZM591 -100H496V700H591V-100Z"
/>
<glyph unicode="&#xb7;" horiz-adv-x="146" d="M73 293Q41 293 21 314T0 367Q0 399 20 420T73 441Q105 441 125 420T146 367Q146 336 126 315T73 293Z" />
<glyph unicode="&#xb8;" horiz-adv-x="275" d="M128 -210Q91 -210 63 -201T9 -175L54 -118Q65 -128 81 -134T120 -141Q146 -141 157 -134T169 -117Q169 -106 159 -98T125 -89H73L106 14H186L162 -58L122 -28Q184 -26 222 -52T260 -119Q260 -158 224 -184T128 -210Z" />
<glyph unicode="&#xb9;" horiz-adv-x="268" d="M93 344V700H192V344H93ZM26 618V700H187V618H26Z" />
<glyph unicode="&#xba;" horiz-adv-x="344" d="M172 401Q128 401 92 421T35 476T14 554Q14 597 35 631T91 685T172 706Q217 706 252 686T309 632T330 554Q330 511 310 477T253 422T172 401ZM173 482Q203 482 222 502T241 554Q241 586 222 605T172 625Q141 625
122 605T103 554Q103 522 122 502T173 482Z" />
<glyph unicode="&#xbb;" horiz-adv-x="476" d="M230 81L339 242L230 403H340L444 242L340 81H230ZM31 81L140 242L31 403H141L245 242L141 81H31Z" />
<glyph unicode="&#xbc;" horiz-adv-x="689" d="M286 304L333 259L118 -16L27 75L286 304ZM384 400L337 445L552 720L643 629L384 400ZM148 344V700H247V344H148ZM81 618V700H242V618H81ZM357 114L464 350H570L461 114H357ZM357 61V114L384 143H651V61H357ZM524
-6V202H622V-6H524Z" />
<glyph unicode="&#xbd;" horiz-adv-x="683" d="M286 304L333 259L118 -16L27 75L286 304ZM384 400L337 445L552 720L643 629L384 400ZM148 344V700H247V344H148ZM81 618V700H242V618H81ZM361 48L503 190Q517 204 521 214T526 234Q526 251 515 261T485 272Q468
272 454 262T422 227L357 285Q380 322 415 339T493 356Q554 356 589 325T624 238Q624 207 612 182T570 129L480 44L361 48ZM361 -6V48L444 76H631V-6H361Z" />
<glyph unicode="&#xbe;" horiz-adv-x="684" d="M268 309L315 269L120 -16L29 75L268 309ZM416 395L369 435L564 720L655 629L416 395ZM177 338Q139 338 107 351T51 387L114 449Q123 436 141 429T176 421Q199 421 213 432T228 464Q228 484 212 495T170 506Q160
506 149 505T131 501L175 555Q201 561 212 563T230 565Q271 565 298 537T325 461Q325 406 285 372T177 338ZM131 501V555L210 647H316L235 555L131 501ZM78 618V700H316V647L243 618H78ZM329 114L436 350H542L433 114H329ZM329 61V114L356 143H623V61H329ZM496
-6V202H594V-6H496Z" />
<glyph unicode="&#xbf;" horiz-adv-x="483" d="M253 -210Q193 -210 146 -185T71 -116T44 -13Q44 41 67 83T134 153T236 192L188 143L198 248H293V95H266Q217 95 187 68T157 -5Q157 -34 170 -56T206 -91T259 -103Q303 -103 336 -80T389 -10L469 -76Q439 -140 383
-175T253 -210ZM246 342Q214 342 194 363T173 416Q173 448 193 469T246 490Q278 490 298 469T319 416Q319 385 299 364T246 342Z" />
<glyph unicode="&#xc0;" horiz-adv-x="702" d="M24 0L312 700H392L678 0H554L330 567H372L146 0H24ZM166 135V235H537V135H166ZM391 759L228 887L313 972L441 809L391 759Z" />
<glyph unicode="&#xc1;" horiz-adv-x="702" d="M24 0L312 700H392L678 0H554L330 567H372L146 0H24ZM166 135V235H537V135H166ZM294 769L244 819L372 982L457 897L294 769Z" />
<glyph unicode="&#xc2;" horiz-adv-x="702" d="M24 0L312 700H392L678 0H554L330 567H372L146 0H24ZM166 135V235H537V135H166ZM223 767L173 817L309 972H392L528 817L478 767L314 900L388 899L223 767Z" />
<glyph unicode="&#xc3;" horiz-adv-x="702" d="M24 0L312 700H392L678 0H554L330 567H372L146 0H24ZM166 135V235H537V135H166ZM423 769Q390 769 367 781T325 804T281 816Q256 816 241 807T212 780L153 839Q182 872 211 891T279 911Q312 911 335 900T378 876T421
864Q447 864 462 873T490 900L549 841Q520 808 491 789T423 769Z" />
<glyph unicode="&#xc4;" horiz-adv-x="702" d="M24 0L312 700H392L678 0H554L330 567H372L146 0H24ZM166 135V235H537V135H166ZM246 778Q218 778 200 797T181 844Q181 872 199 891T246 910Q275 910 293 891T311 844Q311 816 293 797T246 778ZM456 778Q428 778
410 797T391 844Q391 872 409 891T456 910Q485 910 503 891T521 844Q521 816 503 797T456 778Z" />
<glyph unicode="&#xc5;" horiz-adv-x="702" d="M24 0L312 700H392L678 0H554L330 567H372L146 0H24ZM166 135V235H537V135H166ZM352 657Q315 657 287 673T242 718T225 781Q225 816 241 844T286 888T352 905Q388 905 416 889T460 844T476 781Q476 746 460 718T416
674T352 657ZM352 735Q370 735 383 748T396 781Q396 801 383 814T352 827Q331 827 319 814T306 781Q306 762 318 749T352 735Z" />
<glyph unicode="&#xc6;" horiz-adv-x="982" d="M24 0L312 700H592V595H383L146 0H24ZM166 235V335H537V235H166ZM573 0V105H939V0H573ZM494 0V700H609V0H494ZM573 307V408H905V307H573ZM573 595V700H934V595H573Z" />
<glyph unicode="&#xc7;" horiz-adv-x="683" d="M394 -10Q318 -10 254 17T141 94T67 209T41 350Q41 425 67 490T141 605T253 682T394 710Q479 710 541 682T651 606L573 528Q542 562 498 581T394 600Q342 600 299 582T225 531T176 451T159 350Q159 295 176 249T224
170T299 118T394 100Q458 100 502 119T578 173L656 95Q608 46 543 18T394 -10ZM356 -210Q319 -210 291 -201T237 -175L282 -118Q293 -128 309 -134T348 -141Q374 -141 385 -134T397 -117Q397 -106 387 -98T353 -89H301L334 14H414L390 -58L350 -28Q412 -26 450
-52T488 -119Q488 -158 452 -184T356 -210Z" />
<glyph unicode="&#xc8;" horiz-adv-x="590" d="M76 0V700H191V0H76ZM155 0V105H547V0H155ZM155 307V408H513V307H155ZM155 595V700H542V595H155ZM355 759L192 887L277 972L405 809L355 759Z" />
<glyph unicode="&#xc9;" horiz-adv-x="590" d="M76 0V700H191V0H76ZM155 0V105H547V0H155ZM155 307V408H513V307H155ZM155 595V700H542V595H155ZM258 769L208 819L336 982L421 897L258 769Z" />
<glyph unicode="&#xca;" horiz-adv-x="590" d="M76 0V700H191V0H76ZM155 0V105H547V0H155ZM155 307V408H513V307H155ZM155 595V700H542V595H155ZM187 767L137 817L273 972H356L492 817L442 767L278 900L352 899L187 767Z" />
<glyph unicode="&#xcb;" horiz-adv-x="590" d="M76 0V700H191V0H76ZM155 0V105H547V0H155ZM155 307V408H513V307H155ZM155 595V700H542V595H155ZM210 778Q182 778 164 797T145 844Q145 872 163 891T210 910Q239 910 257 891T275 844Q275 816 257 797T210 778ZM420
778Q392 778 374 797T355 844Q355 872 373 891T420 910Q449 910 467 891T485 844Q485 816 467 797T420 778Z" />
<glyph unicode="&#xcc;" horiz-adv-x="267" d="M76 0V700H191V0H76ZM174 759L11 887L96 972L224 809L174 759Z" />
<glyph unicode="&#xcd;" horiz-adv-x="267" d="M76 0V700H191V0H76ZM77 769L27 819L155 982L240 897L77 769Z" />
<glyph unicode="&#xce;" horiz-adv-x="267" d="M76 0V700H191V0H76ZM6 767L-44 817L92 972H175L311 817L261 767L97 900L171 899L6 767Z" />
<glyph unicode="&#xcf;" horiz-adv-x="267" d="M76 0V700H191V0H76ZM29 778Q1 778 -17 797T-36 844Q-36 872 -18 891T29 910Q58 910 76 891T94 844Q94 816 76 797T29 778ZM239 778Q211 778 193 797T174 844Q174 872 192 891T239 910Q268 910 286 891T304 844Q304
816 286 797T239 778Z" />
<glyph unicode="&#xd0;" horiz-adv-x="760" d="M24 400H406V305H24V400ZM175 0V105H359Q431 105 485 136T570 222T601 351Q601 423 570 478T485 564T359 595H175V700H362Q438 700 503 674T616 600T692 489T719 350Q719 276 692 212T617 101T504 27T364 0H175ZM96
0V700H211V0H96Z" />
<glyph unicode="&#xd1;" horiz-adv-x="717" d="M76 0V700H156L191 568V0H76ZM561 0L142 547L156 700L575 153L561 0ZM561 0L526 123V700H641V0H561ZM431 769Q398 769 375 781T333 804T289 816Q264 816 249 807T220 780L161 839Q190 872 219 891T287 911Q320 911
343 900T386 876T429 864Q455 864 470 873T498 900L557 841Q528 808 499 789T431 769Z" />
<glyph unicode="&#xd2;" horiz-adv-x="794" d="M398 -10Q323 -10 258 18T144 95T68 210T40 351Q40 426 67 491T143 605T256 682T396 710Q471 710 535 683T649 606T725 491T753 350Q753 275 726 210T650 95T537 18T398 -10ZM396 100Q467 100 520 132T604 220T635
351Q635 406 618 451T568 530T493 582T396 600Q326 600 273 569T189 481T158 351Q158 296 175 250T224 170T300 119T396 100ZM437 759L274 887L359 972L487 809L437 759Z" />
<glyph unicode="&#xd3;" horiz-adv-x="794" d="M398 -10Q323 -10 258 18T144 95T68 210T40 351Q40 426 67 491T143 605T256 682T396 710Q471 710 535 683T649 606T725 491T753 350Q753 275 726 210T650 95T537 18T398 -10ZM396 100Q467 100 520 132T604 220T635
351Q635 406 618 451T568 530T493 582T396 600Q326 600 273 569T189 481T158 351Q158 296 175 250T224 170T300 119T396 100ZM340 769L290 819L418 982L503 897L340 769Z" />
<glyph unicode="&#xd4;" horiz-adv-x="794" d="M398 -10Q323 -10 258 18T144 95T68 210T40 351Q40 426 67 491T143 605T256 682T396 710Q471 710 535 683T649 606T725 491T753 350Q753 275 726 210T650 95T537 18T398 -10ZM396 100Q467 100 520 132T604 220T635
351Q635 406 618 451T568 530T493 582T396 600Q326 600 273 569T189 481T158 351Q158 296 175 250T224 170T300 119T396 100ZM269 767L219 817L355 972H438L574 817L524 767L360 900L434 899L269 767Z" />
<glyph unicode="&#xd5;" horiz-adv-x="794" d="M398 -10Q323 -10 258 18T144 95T68 210T40 351Q40 426 67 491T143 605T256 682T396 710Q471 710 535 683T649 606T725 491T753 350Q753 275 726 210T650 95T537 18T398 -10ZM396 100Q467 100 520 132T604 220T635
351Q635 406 618 451T568 530T493 582T396 600Q326 600 273 569T189 481T158 351Q158 296 175 250T224 170T300 119T396 100ZM469 769Q436 769 413 781T371 804T327 816Q302 816 287 807T258 780L199 839Q228 872 257 891T325 911Q358 911 381 900T424 876T467
864Q493 864 508 873T536 900L595 841Q566 808 537 789T469 769Z" />
<glyph unicode="&#xd6;" horiz-adv-x="794" d="M398 -10Q323 -10 258 18T144 95T68 210T40 351Q40 426 67 491T143 605T256 682T396 710Q471 710 535 683T649 606T725 491T753 350Q753 275 726 210T650 95T537 18T398 -10ZM396 100Q467 100 520 132T604 220T635
351Q635 406 618 451T568 530T493 582T396 600Q326 600 273 569T189 481T158 351Q158 296 175 250T224 170T300 119T396 100ZM292 778Q264 778 246 797T227 844Q227 872 245 891T292 910Q321 910 339 891T357 844Q357 816 339 797T292 778ZM502 778Q474 778 456
797T437 844Q437 872 455 891T502 910Q531 910 549 891T567 844Q567 816 549 797T502 778Z" />
<glyph unicode="&#xd7;" horiz-adv-x="547" d="M129 118L57 190L419 552L491 480L129 118ZM411 125L63 473L135 545L483 197L411 125Z" />
<glyph unicode="&#xd8;" horiz-adv-x="794" d="M677 706L753 630L117 -6L41 70L677 706ZM398 -10Q323 -10 258 18T144 95T68 210T40 351Q40 426 67 491T143 605T256 682T396 710Q471 710 535 683T649 606T725 491T753 350Q753 275 726 210T650 95T537 18T398 -10ZM396
100Q467 100 520 132T604 220T635 351Q635 406 618 451T568 530T493 582T396 600Q326 600 273 569T189 481T158 351Q158 296 175 250T224 170T300 119T396 100Z" />
<glyph unicode="&#xd9;" horiz-adv-x="690" d="M346 -10Q267 -10 204 26T105 124T68 266V700H183V267Q183 216 204 179T263 121T346 100Q393 100 429 120T486 178T507 266V700H622V265Q622 186 586 124T488 26T346 -10ZM385 759L222 887L307 972L435 809L385 759Z" />
<glyph unicode="&#xda;" horiz-adv-x="690" d="M346 -10Q267 -10 204 26T105 124T68 266V700H183V267Q183 216 204 179T263 121T346 100Q393 100 429 120T486 178T507 266V700H622V265Q622 186 586 124T488 26T346 -10ZM288 769L238 819L366 982L451 897L288 769Z" />
<glyph unicode="&#xdb;" horiz-adv-x="690" d="M346 -10Q267 -10 204 26T105 124T68 266V700H183V267Q183 216 204 179T263 121T346 100Q393 100 429 120T486 178T507 266V700H622V265Q622 186 586 124T488 26T346 -10ZM217 767L167 817L303 972H386L522 817L472
767L308 900L382 899L217 767Z" />
<glyph unicode="&#xdc;" horiz-adv-x="690" d="M346 -10Q267 -10 204 26T105 124T68 266V700H183V267Q183 216 204 179T263 121T346 100Q393 100 429 120T486 178T507 266V700H622V265Q622 186 586 124T488 26T346 -10ZM240 778Q212 778 194 797T175 844Q175 872
193 891T240 910Q269 910 287 891T305 844Q305 816 287 797T240 778ZM450 778Q422 778 404 797T385 844Q385 872 403 891T450 910Q479 910 497 891T515 844Q515 816 497 797T450 778Z" />
<glyph unicode="&#xdd;" horiz-adv-x="672" d="M295 280L22 700H155L368 365H306L519 700H650L375 280H295ZM279 0V352H394V0H279ZM279 769L229 819L357 982L442 897L279 769Z" />
<glyph unicode="&#xde;" horiz-adv-x="604" d="M155 140V240H330Q366 240 393 254T437 295T453 358Q453 394 437 420T394 461T330 476H155V576H336Q402 576 454 549T537 473T568 358Q568 292 538 243T455 167T336 140H155ZM76 0V700H191V0H76Z" />
<glyph unicode="&#xdf;" horiz-adv-x="578" d="M328 -10Q279 -10 250 1T196 34L261 118Q272 108 288 101T332 94Q358 94 380 107T415 144T429 203Q429 236 414 262T372 303T313 319H253V416H290Q318 416 339 429T371 466T383 523Q383 553 371 576T335 612T281
626Q233 626 202 598T171 523V0H61V523Q61 580 89 627T166 702T281 730Q345 730 392 703T465 631T492 531Q492 467 457 423T363 362L373 406Q425 399 465 372T527 302T550 200Q550 154 533 116T486 49T416 6T328 -10Z" />
<glyph unicode="&#xe0;" horiz-adv-x="580" d="M262 -10Q197 -10 145 23T62 112T31 239Q31 310 61 366T144 456T262 490Q317 490 359 467T427 402T452 309V171Q452 119 428 78T360 14T262 -10ZM280 94Q341 94 378 135T416 240Q416 283 399 316T352 367T280 386Q240
386 210 368T162 316T144 240Q144 197 161 164T209 113T280 94ZM409 0V129L428 246L409 362V480H519V0H409ZM330 539L167 667L252 752L380 589L330 539Z" />
<glyph unicode="&#xe1;" horiz-adv-x="580" d="M262 -10Q197 -10 145 23T62 112T31 239Q31 310 61 366T144 456T262 490Q317 490 359 467T427 402T452 309V171Q452 119 428 78T360 14T262 -10ZM280 94Q341 94 378 135T416 240Q416 283 399 316T352 367T280 386Q240
386 210 368T162 316T144 240Q144 197 161 164T209 113T280 94ZM409 0V129L428 246L409 362V480H519V0H409ZM233 549L183 599L311 762L396 677L233 549Z" />
<glyph unicode="&#xe2;" horiz-adv-x="580" d="M262 -10Q197 -10 145 23T62 112T31 239Q31 310 61 366T144 456T262 490Q317 490 359 467T427 402T452 309V171Q452 119 428 78T360 14T262 -10ZM280 94Q341 94 378 135T416 240Q416 283 399 316T352 367T280 386Q240
386 210 368T162 316T144 240Q144 197 161 164T209 113T280 94ZM409 0V129L428 246L409 362V480H519V0H409ZM162 547L112 597L248 752H331L467 597L417 547L253 680L327 679L162 547Z" />
<glyph unicode="&#xe3;" horiz-adv-x="580" d="M262 -10Q197 -10 145 23T62 112T31 239Q31 310 61 366T144 456T262 490Q317 490 359 467T427 402T452 309V171Q452 119 428 78T360 14T262 -10ZM280 94Q341 94 378 135T416 240Q416 283 399 316T352 367T280 386Q240
386 210 368T162 316T144 240Q144 197 161 164T209 113T280 94ZM409 0V129L428 246L409 362V480H519V0H409ZM362 549Q329 549 306 561T264 584T220 596Q195 596 180 587T151 560L92 619Q121 652 150 671T218 691Q251 691 274 680T317 656T360 644Q386 644 401 653T429
680L488 621Q459 588 430 569T362 549Z" />
<glyph unicode="&#xe4;" horiz-adv-x="580" d="M262 -10Q197 -10 145 23T62 112T31 239Q31 310 61 366T144 456T262 490Q317 490 359 467T427 402T452 309V171Q452 119 428 78T360 14T262 -10ZM280 94Q341 94 378 135T416 240Q416 283 399 316T352 367T280 386Q240
386 210 368T162 316T144 240Q144 197 161 164T209 113T280 94ZM409 0V129L428 246L409 362V480H519V0H409ZM185 558Q157 558 139 577T120 624Q120 652 138 671T185 690Q214 690 232 671T250 624Q250 596 232 577T185 558ZM395 558Q367 558 349 577T330 624Q330
652 348 671T395 690Q424 690 442 671T460 624Q460 596 442 577T395 558Z" />
<glyph unicode="&#xe5;" horiz-adv-x="580" d="M262 -10Q197 -10 145 23T62 112T31 239Q31 310 61 366T144 456T262 490Q317 490 359 467T427 402T452 309V171Q452 119 428 78T360 14T262 -10ZM280 94Q341 94 378 135T416 240Q416 283 399 316T352 367T280 386Q240
386 210 368T162 316T144 240Q144 197 161 164T209 113T280 94ZM409 0V129L428 246L409 362V480H519V0H409ZM291 537Q254 537 226 553T181 598T164 661Q164 696 180 724T225 768T291 785Q327 785 355 769T399 724T415 661Q415 626 399 598T355 554T291 537ZM291
615Q309 615 322 628T335 661Q335 681 322 694T291 707Q270 707 258 694T245 661Q245 642 257 629T291 615Z" />
<glyph unicode="&#xe6;" horiz-adv-x="920" d="M670 -10Q598 -10 541 22T450 112T416 240Q416 311 449 367T538 457T664 490Q731 490 782 459T863 374T893 251Q893 239 892 227T887 199H493V289H830L789 253Q787 297 772 327T730 373T662 389Q620 389 589 371T541
321T524 243Q524 198 542 164T593 112T669 93Q706 93 737 106T791 144L861 73Q826 32 776 11T670 -10ZM262 -10Q197 -10 145 23T62 112T31 239Q31 310 61 366T144 456T262 490Q317 490 359 467T427 402T452 309V171Q452 119 428 78T360 14T262 -10ZM280 94Q341
94 378 135T416 240Q416 283 399 316T352 367T280 386Q240 386 210 368T162 316T144 240Q144 197 161 164T209 113T280 94ZM409 0V129L428 246L409 362V480H519V0H409Z" />
<glyph unicode="&#xe7;" horiz-adv-x="487" d="M282 -10Q211 -10 154 23T63 113T30 240Q30 311 63 367T153 457T282 490Q338 490 386 469T469 407L397 334Q376 359 347 371T282 384Q241 384 210 366T161 315T143 240Q143 198 160 166T209 115T282 96Q317 96 346
108T397 146L469 73Q435 33 387 12T282 -10ZM251 -210Q214 -210 186 -201T132 -175L177 -118Q188 -128 204 -134T243 -141Q269 -141 280 -134T292 -117Q292 -106 282 -98T248 -89H196L229 14H309L285 -58L245 -28Q307 -26 345 -52T383 -119Q383 -158 347 -184T251
-210Z" />
<glyph unicode="&#xe8;" horiz-adv-x="534" d="M284 -10Q212 -10 155 22T64 112T30 240Q30 311 63 367T152 457T278 490Q345 490 396 459T477 374T507 251Q507 239 506 227T501 199H107V289H444L403 253Q401 297 386 327T344 373T276 389Q234 389 203 371T155
321T138 243Q138 198 156 164T207 112T283 93Q320 93 351 106T405 144L475 73Q440 32 390 11T284 -10ZM317 539L154 667L239 752L367 589L317 539Z" />
<glyph unicode="&#xe9;" horiz-adv-x="534" d="M284 -10Q212 -10 155 22T64 112T30 240Q30 311 63 367T152 457T278 490Q345 490 396 459T477 374T507 251Q507 239 506 227T501 199H107V289H444L403 253Q401 297 386 327T344 373T276 389Q234 389 203 371T155
321T138 243Q138 198 156 164T207 112T283 93Q320 93 351 106T405 144L475 73Q440 32 390 11T284 -10ZM220 549L170 599L298 762L383 677L220 549Z" />
<glyph unicode="&#xea;" horiz-adv-x="534" d="M284 -10Q212 -10 155 22T64 112T30 240Q30 311 63 367T152 457T278 490Q345 490 396 459T477 374T507 251Q507 239 506 227T501 199H107V289H444L403 253Q401 297 386 327T344 373T276 389Q234 389 203 371T155
321T138 243Q138 198 156 164T207 112T283 93Q320 93 351 106T405 144L475 73Q440 32 390 11T284 -10ZM149 547L99 597L235 752H318L454 597L404 547L240 680L314 679L149 547Z" />
<glyph unicode="&#xeb;" horiz-adv-x="534" d="M284 -10Q212 -10 155 22T64 112T30 240Q30 311 63 367T152 457T278 490Q345 490 396 459T477 374T507 251Q507 239 506 227T501 199H107V289H444L403 253Q401 297 386 327T344 373T276 389Q234 389 203 371T155
321T138 243Q138 198 156 164T207 112T283 93Q320 93 351 106T405 144L475 73Q440 32 390 11T284 -10ZM172 558Q144 558 126 577T107 624Q107 652 125 671T172 690Q201 690 219 671T237 624Q237 596 219 577T172 558ZM382 558Q354 558 336 577T317 624Q317 652
335 671T382 690Q411 690 429 671T447 624Q447 596 429 577T382 558Z" />
<glyph unicode="&#xec;" horiz-adv-x="232" d="M61 0V480H171V0H61ZM412 539L249 667L334 752L462 589L412 539Z" />
<glyph unicode="&#xed;" horiz-adv-x="232" d="M61 0V480H171V0H61ZM315 549L265 599L393 762L478 677L315 549Z" />
<glyph unicode="&#xee;" horiz-adv-x="232" d="M61 0V480H171V0H61ZM244 547L194 597L330 752H413L549 597L499 547L335 680L409 679L244 547Z" />
<glyph unicode="&#xef;" horiz-adv-x="232" d="M61 0V480H171V0H61ZM267 558Q239 558 221 577T202 624Q202 652 220 671T267 690Q296 690 314 671T332 624Q332 596 314 577T267 558ZM477 558Q449 558 431 577T412 624Q412 652 430 671T477 690Q506 690 524 671T542
624Q542 596 524 577T477 558Z" />
<glyph unicode="&#xf0;" horiz-adv-x="562" d="M282 -10Q213 -10 157 23T68 112T34 236Q34 304 64 354T144 433T254 462Q293 462 318 453T358 428T384 388L342 413L138 700H271L462 426Q529 328 529 232Q529 165 497 110T408 23T282 -10ZM282 98Q320 98 350 116T397
165T414 236Q414 275 397 305T350 354T282 372Q245 372 215 355T167 306T149 236Q149 197 166 166T214 116T282 98ZM109 492L78 571L427 700L458 621L109 492Z" />
<glyph unicode="&#xf1;" horiz-adv-x="551" d="M390 0V277Q390 325 360 356T281 387Q249 387 224 373T185 334T171 277L128 301Q128 356 152 398T218 465T314 490Q368 490 410 463T476 392T500 301V0H390ZM61 0V480H171V0H61ZM348 549Q315 549 292 561T250 584T206
596Q181 596 166 587T137 560L78 619Q107 652 136 671T204 691Q237 691 260 680T303 656T346 644Q372 644 387 653T415 680L474 621Q445 588 416 569T348 549Z" />
<glyph unicode="&#xf2;" horiz-adv-x="563" d="M281 -10Q211 -10 154 23T64 114T30 241Q30 311 63 367T154 456T281 490Q352 490 409 457T499 368T533 241Q533 171 500 114T409 24T281 -10ZM281 96Q322 96 353 114T402 166T420 241Q420 283 402 315T353 365T281
384Q241 384 210 366T161 315T143 241Q143 199 160 166T209 115T281 96ZM322 539L159 667L244 752L372 589L322 539Z" />
<glyph unicode="&#xf3;" horiz-adv-x="563" d="M281 -10Q211 -10 154 23T64 114T30 241Q30 311 63 367T154 456T281 490Q352 490 409 457T499 368T533 241Q533 171 500 114T409 24T281 -10ZM281 96Q322 96 353 114T402 166T420 241Q420 283 402 315T353 365T281
384Q241 384 210 366T161 315T143 241Q143 199 160 166T209 115T281 96ZM225 549L175 599L303 762L388 677L225 549Z" />
<glyph unicode="&#xf4;" horiz-adv-x="563" d="M281 -10Q211 -10 154 23T64 114T30 241Q30 311 63 367T154 456T281 490Q352 490 409 457T499 368T533 241Q533 171 500 114T409 24T281 -10ZM281 96Q322 96 353 114T402 166T420 241Q420 283 402 315T353 365T281
384Q241 384 210 366T161 315T143 241Q143 199 160 166T209 115T281 96ZM154 547L104 597L240 752H323L459 597L409 547L245 680L319 679L154 547Z" />
<glyph unicode="&#xf5;" horiz-adv-x="563" d="M281 -10Q211 -10 154 23T64 114T30 241Q30 311 63 367T154 456T281 490Q352 490 409 457T499 368T533 241Q533 171 500 114T409 24T281 -10ZM281 96Q322 96 353 114T402 166T420 241Q420 283 402 315T353 365T281
384Q241 384 210 366T161 315T143 241Q143 199 160 166T209 115T281 96ZM354 549Q321 549 298 561T256 584T212 596Q187 596 172 587T143 560L84 619Q113 652 142 671T210 691Q243 691 266 680T309 656T352 644Q378 644 393 653T421 680L480 621Q451 588 422 569T354
549Z" />
<glyph unicode="&#xf6;" horiz-adv-x="563" d="M281 -10Q211 -10 154 23T64 114T30 241Q30 311 63 367T154 456T281 490Q352 490 409 457T499 368T533 241Q533 171 500 114T409 24T281 -10ZM281 96Q322 96 353 114T402 166T420 241Q420 283 402 315T353 365T281
384Q241 384 210 366T161 315T143 241Q143 199 160 166T209 115T281 96ZM177 558Q149 558 131 577T112 624Q112 652 130 671T177 690Q206 690 224 671T242 624Q242 596 224 577T177 558ZM387 558Q359 558 341 577T322 624Q322 652 340 671T387 690Q416 690 434
671T452 624Q452 596 434 577T387 558Z" />
<glyph unicode="&#xf7;" horiz-adv-x="547" d="M53 285V385H494V285H53ZM274 436Q246 436 228 455T209 502Q209 530 227 549T274 568Q303 568 321 549T339 502Q339 474 321 455T274 436ZM274 103Q246 103 228 122T209 169Q209 197 227 216T274 235Q303 235 321
216T339 169Q339 141 321 122T274 103Z" />
<glyph unicode="&#xf8;" horiz-adv-x="563" d="M85 -29L13 43L479 509L551 437L85 -29ZM281 -10Q211 -10 154 23T64 114T30 241Q30 311 63 367T154 456T281 490Q352 490 409 457T499 368T533 241Q533 171 500 114T409 24T281 -10ZM281 96Q322 96 353 114T402 166T420
241Q420 283 402 315T353 365T281 384Q241 384 210 366T161 315T143 241Q143 199 160 166T209 115T281 96Z" />
<glyph unicode="&#xf9;" horiz-adv-x="517" d="M258 -10Q197 -10 150 17T76 91T49 201V480H159V206Q159 171 170 147T204 109T258 96Q306 96 331 124T357 206V480H467V201Q467 138 441 91T367 17T258 -10ZM299 539L136 667L221 752L349 589L299 539Z" />
<glyph unicode="&#xfa;" horiz-adv-x="517" d="M258 -10Q197 -10 150 17T76 91T49 201V480H159V206Q159 171 170 147T204 109T258 96Q306 96 331 124T357 206V480H467V201Q467 138 441 91T367 17T258 -10ZM202 549L152 599L280 762L365 677L202 549Z" />
<glyph unicode="&#xfb;" horiz-adv-x="517" d="M258 -10Q197 -10 150 17T76 91T49 201V480H159V206Q159 171 170 147T204 109T258 96Q306 96 331 124T357 206V480H467V201Q467 138 441 91T367 17T258 -10ZM131 547L81 597L217 752H300L436 597L386 547L222 680L296
679L131 547Z" />
<glyph unicode="&#xfc;" horiz-adv-x="517" d="M258 -10Q197 -10 150 17T76 91T49 201V480H159V206Q159 171 170 147T204 109T258 96Q306 96 331 124T357 206V480H467V201Q467 138 441 91T367 17T258 -10ZM154 558Q126 558 108 577T89 624Q89 652 107 671T154
690Q183 690 201 671T219 624Q219 596 201 577T154 558ZM364 558Q336 558 318 577T299 624Q299 652 317 671T364 690Q393 690 411 671T429 624Q429 596 411 577T364 558Z" />
<glyph unicode="&#xfd;" horiz-adv-x="518" d="M216 -5L11 480H132L272 124H237L385 480H507L284 -5H216ZM73 -200L222 107L284 -5L195 -200H73ZM202 549L152 599L280 762L365 677L202 549Z" />
<glyph unicode="&#xfe;" horiz-adv-x="580" d="M318 -10Q263 -10 220 13T153 78T128 171V309Q128 361 153 402T221 466T318 490Q383 490 435 457T518 367T549 239Q549 169 519 113T436 23T318 -10ZM61 -200V720H171V351L152 234L171 118V-200H61ZM300 94Q340 94
370 112T418 164T436 240Q436 283 419 316T371 367T300 386Q260 386 229 368T181 316T164 240Q164 197 181 164T229 113T300 94Z" />
<glyph unicode="&#xff;" horiz-adv-x="518" d="M216 -5L11 480H132L272 124H237L385 480H507L284 -5H216ZM73 -200L222 107L284 -5L195 -200H73ZM154 558Q126 558 108 577T89 624Q89 652 107 671T154 690Q183 690 201 671T219 624Q219 596 201 577T154 558ZM364
558Q336 558 318 577T299 624Q299 652 317 671T364 690Q393 690 411 671T429 624Q429 596 411 577T364 558Z" />
<glyph unicode="&#x2013;" horiz-adv-x="553" d="M61 208V302H492V208H61Z" />
<glyph unicode="&#x2014;" horiz-adv-x="861" d="M61 210V300H792V210H61Z" />
<glyph unicode="&#x2018;" horiz-adv-x="251" d="M203 696L135 569L98 559Q104 571 112 579T131 587Q154 587 173 568T193 518Q193 487 171 464T118 441Q88 441 66 463T43 518Q43 531 48 548T68 593L142 729L203 696Z" />
<glyph unicode="&#x2019;" horiz-adv-x="252" d="M49 455L117 582L154 592Q148 580 140 572T121 564Q98 564 79 583T59 633Q59 665 81 687T134 710Q164 710 186 688T209 633Q209 620 204 603T184 558L110 422L49 455Z" />
<glyph unicode="&#x201a;" horiz-adv-x="276" d="M61 -117L129 10L166 20Q160 8 152 0T133 -8Q110 -8 91 11T71 61Q71 93 92 115T146 138Q176 138 198 116T221 61Q221 48 216 31T196 -14L122 -150L61 -117Z" />
<glyph unicode="&#x201c;" horiz-adv-x="455" d="M203 696L135 569L98 559Q104 571 112 579T131 587Q154 587 173 568T193 518Q193 487 171 464T118 441Q88 441 66 463T43 518Q43 531 48 548T68 593L142 729L203 696ZM407 696L339 569L302 559Q308 571 316 579T335
587Q358 587 377 568T397 518Q397 487 375 464T322 441Q292 441 270 463T247 518Q247 531 252 548T272 593L346 729L407 696Z" />
<glyph unicode="&#x201d;" horiz-adv-x="456" d="M253 455L321 582L358 592Q352 580 344 572T325 564Q302 564 283 583T263 633Q263 665 285 687T338 710Q368 710 390 688T413 633Q413 620 408 603T388 558L314 422L253 455ZM49 455L117 582L154 592Q148 580 140
572T121 564Q98 564 79 583T59 633Q59 665 81 687T134 710Q164 710 186 688T209 633Q209 620 204 603T184 558L110 422L49 455Z" />
<glyph unicode="&#x201e;" horiz-adv-x="480" d="M265 -117L333 10L370 20Q364 8 356 0T337 -8Q314 -8 295 11T275 61Q275 93 297 115T350 138Q380 138 402 116T425 61Q425 48 420 31T400 -14L326 -150L265 -117ZM61 -117L129 10L166 20Q160 8 152 0T133 -8Q110
-8 91 11T71 61Q71 93 93 115T146 138Q176 138 198 116T221 61Q221 48 216 31T196 -14L122 -150L61 -117Z" />
<glyph unicode="&#x2022;" horiz-adv-x="342" d="M171 262Q140 262 116 276T79 314T65 368Q65 397 78 421T116 459T171 474Q202 474 225 460T262 421T276 368Q276 339 263 315T226 276T171 262Z" />
<glyph unicode="&#x2039;" horiz-adv-x="277" d="M136 81L32 242L136 403H246L137 242L246 81H136Z" />
<glyph unicode="&#x203a;" horiz-adv-x="277" d="M31 81L140 242L31 403H141L245 242L141 81H31Z" />
</font>
</defs>
</svg>
